Πήγαινε στο περιεχόμενο

Recommended Posts

Planet Earth II (2016) 720p BluRay DTS-HDC

06784798522858480358.jpg

68544187354623612704.jpg

f1USP.png
http://www.imdb.com/title/tt5491994/

ΥΠΟΘΕΣΗ:
Πριν από 10 χρόνια το εκπληκτικό ντοκιμαντέρ με τίτλο «Planet Earth» άλλαξε τον τρόπο με τον οποίο βλέπουμε τον κόσμο. Σήμερα, το BBC παρουσιάζει το Planet Earth II σε αφήγηση του Sir David Attenborough, το οποίο αποκαλύπτει τον πλανήτη μας από μια εντελώς νέα οπτική ματιά, αξιοποιώντας την σημαντική πρόοδο που έγινε τόσο στην τεχνολογία κινηματογράφησης, όσο και στην κατανόηση του φυσικού μας περιβάλλοντος.
Το Planet Earth, το δημιούργημα γυρισμάτων που κράτησαν τέσσερα χρόνια, ξεπέρασε σε προϋπολογισμό κάθε προηγούμενο συμβατικό ντοκιμαντέρ. Το επιβλητικό πρότζεκτ επιστρέφει φέτος με νέα δυναμική, συγκλονιστικές εικόνες και ακόμη περισσότερη ομορφιά.

qpxob.png
Είδος Σειράς:
Ντοκιμαντέρ
Επίσημη Πρεμιέρα:
13 Νοεμβρίου 2016
Παραγωγή:
BBC CHANNEL
Αφηγητής:
David Attenborough
Φορμάτ:
MKV
Ανάλυση:
1280X720
Μέγεθος:
4.00 GB περίπου το κάθε επεισόδιο
Επεισόδια:
6
Διάρκεια:
60΄ περίπου το κάθε επεισόδιο
Κανάλι:
BBC One
Γλώσσα:
Αγγλικά
Υπότιτλοι:
Ελληνικοί Εξωτερικοί


General
Unique ID : 279829555279367333692874701529326818244 (0xD2853644907C63EF81A9F8208B7413C4)
Complete name : Planet.Earth.II.2016.E01.720p.BluRay.DTS-HDC.mkv
Format : Matroska
Format version : Version 4 / Version 2
File size : 4.31 GiB
Duration : 58mn 35s
Overall bit rate : 10.5 Mbps
Movie name : avs @ HDChina
Encoded date : UTC 2018-03-09 10:14:02
Writing application : mkvmerge v19.0.0 ('Brave Captain') 64-bit
Writing library : libebml v1.3.5 + libmatroska v1.4.8
DURATION : 00:57:55.288000000
NUMBER_OF_FRAMES : 429
NUMBER_OF_BYTES : 38039
_STATISTICS_WRITING_APP : mkvmerge v19.0.0 ('Brave Captain') 64-bit
_STATISTICS_WRITING_DATE_UTC : 2018-03-09 10:14:02
_STATISTICS_TAGS : BPS DURATION NUMBER_OF_FRAMES NUMBER_OF_BYTES
Video #1
ID : 1
Format : AVC
Format/Info : Advanced Video Codec
Format profile : [email protected]
Format settings, CABAC : Yes
Format settings, ReFrames : 9 frames
Codec ID : V_MPEG4/ISO/AVC
Duration : 58mn 35s
Bit rate : 9 000 Kbps
Width : 1 280 pixels
Height : 720 pixels
Display aspect ratio : 16:9
Frame rate mode : Constant
Frame rate : 25.000 fps
Color space : YUV
Chroma subsampling : 4:2:0
Bit depth : 8 bits
Scan type : Progressive
Bits/(Pixel*Frame) : 0.391
Stream size : 3.60 GiB (84%)
Writing library : x264 core 148 r2665kMod a01e339
Encoding settings : cabac=1 / ref=9 / deblock=1:-3:-3 / analyse=0x3:0x133 / me=umh / subme=11 / psy=1 / fade_compensate=0.00 / psy_rd=1.05:0.00 / mixed_ref=1 / me_range=32 / chroma_me=1 / trellis=2 / 8x8dct=1 / cqm=0 / deadzone=21,11 / fast_pskip=0 / chroma_qp_offset=-2 / threads=22 / lookahead_threads=3 / sliced_threads=0 / nr=0 / decimate=0 / interlaced=0 / bluray_compat=0 / constrained_intra=0 / fgo=0 / bframes=8 / b_pyramid=2 / b_adapt=2 / b_bias=0 / direct=3 / weightb=1 / open_gop=0 / weightp=2 / keyint=240 / keyint_min=24 / scenecut=40 / intra_refresh=0 / rc=2pass / mbtree=0 / bitrate=9000 / ratetol=1.0 / qcomp=0.70 / qpmin=0 / qpmax=69 / qpstep=4 / cplxblur=20.0 / qblur=0.5 / ip_ratio=1.20 / pb_ratio=1.20 / aq=3:0.85
Language : English
Default : Yes
Forced : No
DURATION : 00:58:35.000000000
NUMBER_OF_FRAMES : 87875
NUMBER_OF_BYTES : 3954747780
_STATISTICS_WRITING_APP : mkvmerge v19.0.0 ('Brave Captain') 64-bit
_STATISTICS_WRITING_DATE_UTC : 2018-03-09 10:14:02
_STATISTICS_TAGS : BPS DURATION NUMBER_OF_FRAMES NUMBER_OF_BYTES
Audio #2
ID : 2
Format : DTS
Format/Info : Digital Theater Systems
Mode : 16
Format settings, Endianness : Big
Codec ID : A_DTS
Duration : 58mn 35s
Bit rate mode : Constant
Bit rate : 1 509 Kbps
Channel(s) : 6 channels
Channel positions : Front: L C R, Side: L R, LFE
Sampling rate : 48.0 KHz
Bit depth : 16 bits
Compression mode : Lossy
Stream size : 632 MiB (14%)
Language : English
Default : Yes
Forced : No
Text #3
ID : 3
Format : UTF-8
Codec ID : S_TEXT/UTF8
Codec ID/Info : UTF-8 Plain Text
Title : Greek
Language : Greek
Default : Yes
Forced : No
Text #4
ID : 4
Format : PGS
Muxing mode : zlib
Codec ID : S_HDMV/PGS
Codec ID/Info : The same subtitle format used on BDs/HD-DVDs
Language : English
Default : No
Forced : No



ΕΠΕΙΣΟΔΙΑ:
1 - Islands - 6 Nov. 2016 - Νησιά
2 - Mountains - 13 Nov. 2016 - Βουνά
3 - Jungles - 20 Nov. 2016 - Ζούγκλες
4 - Deserts - 27 Nov. 2016 - Έρημοι
5 - Grasslands - 4 Dec. 2016 - Βοσκοτόπια
6 - Cities - 11 Dec. 2016 - Πόλεις

MaJL4.png



C4MOy.pngZeQkoV8.png

Kρυφό περιεχόμενο

    Απάντηση σε αυτό το θέμα για να δείτε το κρυφό περιεχόμενο.
  • Like 1

Share this post


Link to post
Δημοσίευση σε άλλες σελίδες

Δημιουργήστε ένα λογαριασμό ή συνδεθείτε για να σχολιάσετε

Χρειάζεται να είστε χρήστης για να μπορέσετε να σχολιάσετε

Δημιουργία λογαριασμού

Εγγραφείτε για ένα νέο λογαριασμό στην κοινότητά μας. Είναι εύκολο!

Εγγραφή νέου λογαριασμού

Συνδεθείτε

Έχετε ήδη λογαριασμό? Συνδεθείτε εδώ.

Συνδεθείτε τώρα