Πήγαινε στο περιεχόμενο
Gamato
Αναζήτηση σε...
  • More options...
Βρείτε αποτελέσματα που ...
Βρείτε αποτελέσματα σε...
  • GAMATO

    «GAMATO The Greek Community»

    Το GAMATO είναι ένα υπέροχο λειτουργικά σχεδιασμένο Website με πλούσιο και ενεργό υλικό κατεβάσματος ανά κατηγορία. Χρειάζεται μία απλή εγγραφή με ένα email σας και να είστε λίγο εξοικειωμένοι με τη διαδικασία κατεβάσματος μέσω filehosting services WORLDBYTEZ. See more...

  • WORLDBYTEZ

    Worldbytez είναι ένα υπέροχο λειτουργικά σχεδιασμένος filehosting με πλούσιο και ενεργό υλικό, Χρειάζεται μία απλή εγγραφή με ένα email σας και να είστε λίγο εξοικειωμένοι με τη διαδικασία κατεβάσματος μέσω filehosting services WORLDBYTEZ. See more...

  • GAMATO

    «GAMATO The Greek Community»

    Το GAMATO είναι ένα υπέροχο λειτουργικά σχεδιασμένο Website με πλούσιο και ενεργό υλικό κατεβάσματος ανά κατηγορία. Χρειάζεται μία απλή εγγραφή με ένα email σας και να είστε λίγο εξοικειωμένοι με τη διαδικασία κατεβάσματος μέσω filehosting services WORLDBYTEZ. See more...

  • WORLDBYTEZ

    Worldbytez είναι ένα υπέροχο λειτουργικά σχεδιασμένος filehosting με πλούσιο και ενεργό υλικό, Χρειάζεται μία απλή εγγραφή με ένα email σας και να είστε λίγο εξοικειωμένοι με τη διαδικασία κατεβάσματος μέσω filehosting services WORLDBYTEZ. See more...

Shootbox

ΠΩΣ ΚΑΤΕΒΑΖΟΥΜΕ VIDEO VIDEO
ΓΙΝΕ ΑΜΕΣΑ PREMIUMΚΑΙ ΚΑΤΕΒΑΣΤΕ ΑΡΧΕΙΑ ΑΜΕΣΑ ΜΕ ΤΟΝ IDM
ΑΠΑΓΟΡΕΥΕΤΑΙ ΟΠΟΙΑΔΗΠΟΤΕ ΒΟΗΘΕΙΑ ΣΤΟ CHAT ΥΠΑΡΧΕΙ SECTION ΒΟΗΘΕΙΑΣ

Load More
Δεν έχετε άδεια για συνομιλία παρακαλούμε εγγραφείτε.

NEWS

Tα θεματα του φορουμ εχουν λινκ αποκλειστικα στο Worldbytez

Eκμεταλλευτειτε τις νεες χαμηλες τιμες για premium συνδρομες για να εχετε απεριοριστο downloading


Recommended Posts

Drive Angry (2011) 1080p BluRay DTS x264-CHD

61839234876124979367.jpg

42996314673859984835.jpg

f1USP.png
http://www.imdb.com/title/tt1502404/

ΥΠΟΘΕΣΗ:
Ο Μίλτον, ένας σκληροτράχηλος άνδρας, αποφασίζει να κυνηγήσει αυτούς που σκότωσαν την κόρη του. Έχει στη διάθεσή του τρεις μέρες προτού εκείνοι θυσιάσουν τη μικρή εγγονή του όταν το φεγγάρι γίνει πανσέληνος. Προκειμένου να πετύχει τον σκοπό του, πρέπει να ξεπεράσει όλα τα ανθρώπινα όρια. Στο πλευρό του βρίσκεται η Πάιπερ, μια νεαρή σέξι σερβιτόρα η οποία, με το γρήγορο αυτοκίνητο του πρώην της, βοηθάει τον Μίλτον να καταδιώξει τον Τζόνα Κινγκ και τη θανάσιμη ομάδα του. Στο κατόπι τους όμως είναι και η αστυνομία, καθώς και ένας μυστηριώδης δολοφόνος, που κυνηγάει ανελέητα τον Μίλτον στους δρόμους του αμερικανικού Νότου.

qpxob.png
Είδος Ταινίας:
Action, Fantasy, Thriller
Σκηνοθεσία:
Patrick Lussier
Σενάριο:
Todd Farmer, Patrick Lussier
Ηθοποιοί:
Nicolas Cage, Amber Heard, William Fichtner
Επίσημη Πρεμιέρα:
25 February 2011 (USA)
Ελληνικός Τίτλος:
Drive Angry
Format:
MKV
Ανάλυση:
1920X1080
Μέγεθος:
9,50 GΒ
Διάρκεια:
01:44:31
Γλώσσα:
Αγγλικά
Υπότιτλοι:
Ελληνικοί Εξωτερικοί


General
Unique ID : 249362005014826927504727024278340137909 (0xBB9960100F3FB2619EB42C42C9CC73B5)
Complete name : Drive.Angry.2011.BluRay.1080p.DTS.x264-CHD.mkv
Format : Matroska
Format version : Version 2
File size : 9.50 GiB
Duration : 1h 44mn
Overall bit rate : 13.0 Mbps
Encoded date : UTC 2011-05-15 16:43:13
Writing application : mkvmerge v3.2.0 ('Beginnings') 编译于 Feb 12 2010 16:46:17
Writing library : libebml v0.7.9 + libmatroska v0.8.1
Video #1
ID : 1
Format : AVC
Format/Info : Advanced Video Codec
Format profile : [email protected]
Format settings, CABAC : Yes
Format settings, ReFrames : 4 frames
Codec ID : V_MPEG4/ISO/AVC
Duration : 1h 44mn
Bit rate : 11.5 Mbps
Width : 1 920 pixels
Height : 1 080 pixels
Display aspect ratio : 16:9
Frame rate mode : Constant
Frame rate : 23.976 fps
Color space : YUV
Chroma subsampling : 4:2:0
Bit depth : 8 bits
Scan type : Progressive
Bits/(Pixel*Frame) : 0.231
Stream size : 8.21 GiB (86%)
Title : Drive.Angry.2011
Writing library : x264 core 114 r1924 08d04a4
Encoding settings : cabac=1 / ref=4 / deblock=1:-3:-3 / analyse=0x3:0x113 / me=umh / subme=10 / psy=1 / psy_rd=1.05:0.10 / mixed_ref=1 / me_range=32 / chroma_me=1 / trellis=2 / 8x8dct=1 / cqm=2 / deadzone=21,11 / fast_pskip=0 / chroma_qp_offset=-2 / threads=12 / sliced_threads=0 / nr=0 / decimate=1 / interlaced=0 / constrained_intra=0 / bframes=6 / b_pyramid=2 / b_adapt=2 / b_bias=0 / direct=3 / weightb=1 / open_gop=0 / weightp=2 / keyint=250 / keyint_min=23 / scenecut=40 / intra_refresh=0 / rc_lookahead=50 / rc=2pass / mbtree=1 / bitrate=11502 / ratetol=1.0 / qcomp=0.70 / qpmin=1 / qpmax=63 / qpstep=4 / cplxblur=20.0 / qblur=0.5 / vbv_maxrate=40000 / vbv_bufsize=40000 / nal_hrd=none / ip_ratio=1.40 / aq=2:0.90
Language : English
Default : No
Forced : No
Audio #2
ID : 2
Format : DTS
Format/Info : Digital Theater Systems
Mode : 16
Format settings, Endianness : Big
Codec ID : A_DTS
Duration : 1h 44mn
Bit rate mode : Constant
Bit rate : 1 509 Kbps
Channel(s) : 6 channels
Channel positions : Front: L C R, Side: L R, LFE
Sampling rate : 48.0 KHz
Bit depth : 24 bits
Compression mode : Lossy
Stream size : 1.10 GiB (12%)
Title : DTS-CORE 1536K
Language : English
Default : Yes
Forced : No



MaJL4.png



C4MOy.pngZeQkoV8.png

Kρυφό περιεχόμενο

    Απάντηση σε αυτό το θέμα για να δείτε το κρυφό περιεχόμενο.
  • Like 1

Share this post


Link to post
Δημοσίευση σε άλλες σελίδες

Δημιουργήστε ένα λογαριασμό ή συνδεθείτε για να σχολιάσετε

Χρειάζεται να είστε χρήστης για να μπορέσετε να σχολιάσετε

Δημιουργία λογαριασμού

Εγγραφείτε για ένα νέο λογαριασμό στην κοινότητά μας. Είναι εύκολο!

Εγγραφή νέου λογαριασμού

Συνδεθείτε

Έχετε ήδη λογαριασμό? Συνδεθείτε εδώ.

Συνδεθείτε τώρα
    • 1 Posts
    • 68 Views

×