Πήγαινε στο περιεχόμενο
Gamato
Αναζήτηση σε...
  • More options...
Βρείτε αποτελέσματα που ...
Βρείτε αποτελέσματα σε...
  • GAMATO

    «GAMATO The Greek Community»

    Το GAMATO είναι ένα υπέροχο λειτουργικά σχεδιασμένο Website με πλούσιο και ενεργό υλικό κατεβάσματος ανά κατηγορία. Χρειάζεται μία απλή εγγραφή με ένα email σας και να είστε λίγο εξοικειωμένοι με τη διαδικασία κατεβάσματος μέσω filehosting services WORLDBYTEZ. See more...

  • WORLDBYTEZ

    Worldbytez είναι ένα υπέροχο λειτουργικά σχεδιασμένος filehosting με πλούσιο και ενεργό υλικό, Χρειάζεται μία απλή εγγραφή με ένα email σας και να είστε λίγο εξοικειωμένοι με τη διαδικασία κατεβάσματος μέσω filehosting services WORLDBYTEZ. See more...

  • GAMATO

    «GAMATO The Greek Community»

    Το GAMATO είναι ένα υπέροχο λειτουργικά σχεδιασμένο Website με πλούσιο και ενεργό υλικό κατεβάσματος ανά κατηγορία. Χρειάζεται μία απλή εγγραφή με ένα email σας και να είστε λίγο εξοικειωμένοι με τη διαδικασία κατεβάσματος μέσω filehosting services WORLDBYTEZ. See more...

  • WORLDBYTEZ

    Worldbytez είναι ένα υπέροχο λειτουργικά σχεδιασμένος filehosting με πλούσιο και ενεργό υλικό, Χρειάζεται μία απλή εγγραφή με ένα email σας και να είστε λίγο εξοικειωμένοι με τη διαδικασία κατεβάσματος μέσω filehosting services WORLDBYTEZ. See more...

Shootbox

ΠΩΣ ΚΑΤΕΒΑΖΟΥΜΕ VIDEO VIDEO
ΓΙΝΕ ΑΜΕΣΑ PREMIUMΚΑΙ ΚΑΤΕΒΑΣΤΕ ΑΡΧΕΙΑ ΑΜΕΣΑ ΜΕ ΤΟΝ IDM
ΑΠΑΓΟΡΕΥΕΤΑΙ ΟΠΟΙΑΔΗΠΟΤΕ ΒΟΗΘΕΙΑ ΣΤΟ CHAT ΥΠΑΡΧΕΙ SECTION ΒΟΗΘΕΙΑΣ

Load More
Δεν έχετε άδεια για συνομιλία παρακαλούμε εγγραφείτε.

NEWS

Tα θεματα του φορουμ εχουν λινκ αποκλειστικα στο Worldbytez

Eκμεταλλευτειτε τις νεες χαμηλες τιμες για premium συνδρομες για να εχετε απεριοριστο downloading

komando

Rocky - All the Collection (1976 - 2006) 1080p BluRay DTS x264-HDC


Recommended Posts

Rocky I (1976) 1080p BluRay DTS x264-HDC

94901422181534438452.jpg

f1USP.png

http://www.imdb.com/title/tt0075148/

Υπόθεση :

Είναι μια ταινία που χαρακτηρίζει ένα ολόκληρο έθνος και έχει κερδίσει Όσκαρ σαν καλύτερη ταινία και καλύτερη σκηνοθεσία. Ο Ροκυ Μπαλμποα είναι ένας πυγμάχος από την Φιλαδέλφεια που δεν δείχνει να έχει προοπτικές για μεγάλα πράγματα. Η μεγάλη ευκαιρία θα παρουσιαστεί όταν ο Απολο Κρηντ, παγκόσμιος πρωταθλητής βαρέων βαρών, διαλέγει το Ρόκυ για προσεχή του αντίπαλο. Για τον Κρηντ ο αγώνας είναι μια επίδειξη, για τον Ροκυ είναι ο δρόμος που θα τον οδηγήσει στη δόξα. Κι ενώ προετοιμάζεται πυρετωδώς για τη μεγάλη αναμέτρηση, Ο Ροκυ θα ερωτευτεί την Αντριαν, μια γυναίκα που θα βγάλει στην επιφάνεια ό,τι καλό έχει ο Ροκυ και θα τον βοηθήσει να πετύχει το μεγάλο του στόχο.

qpxob.png

Είδος Ταινίας:

Action | Drama | Romance

Σκηνοθέτης:

John G. Avildsen

Σενάριο:

Sylvester Stallone

Ηθοποιοί:

Sylvester Stallone, Burgess Meredith, Burt Young, Talia Shire, Joe Spinell, Carl Weathers, Thayer David

Format :

MKV

Ανάλυση :

1920X1040

Μέγεθος :

13,9 GB

Διάρκεια:

1:59:35

Γλώσσα:

Αγγλικά

Yπότιτλοι:

Ελληνικοί Εξωτερικοί

 

 

General

Format : Matroska

Format version : Version 1

File size : 13.9 GiB

Duration : 1h 59mn

Overall bit rate : 16.6 Mbps

Encoded date : UTC 2009-10-08 11:13:21

Writing application : mkvmerge v2.5.3 ('Boogie') built on Mar 7 2009 15:00:41

Writing library : libebml v0.7.7 + libmatroska v0.8.1

 

Video

ID : 1

Format : AVC

Format/Info : Advanced Video Codec

Format profile :

Format settings, CABAC : Yes

Format settings, ReFrames : 4 frames

Codec ID : V_MPEG4/ISO/AVC

Duration : 1h 59mn

Bit rate : 15.1 Mbps

Width : 1 920 pixels

Height : 1 040 pixels

Display aspect ratio : 1.85:1

Frame rate mode : Constant

Frame rate : 23.976 fps

Color space : YUV

Chroma subsampling : 4:2:0

Bit depth : 8 bits

Scan type : Progressive

Bits/(Pixel*Frame) : 0.316

Stream size : 12.4 GiB (89%)

Title : 15 Mbps AVC MPEG-4

Writing library : x264 core 76 r1271M 496d79d

Encoding settings : cabac=1 / ref=4 / deblock=1:-2:-2 / analyse=0x3:0x113 / me=umh / subme=9 / psy=1 / psy_rd=1.3:0.0 / mixed_ref=1 / me_range=24 / chroma_me=1 / trellis=2 / 8x8dct=1 / cqm=0 / deadzone=21,11 / chroma_qp_offset=-2 / threads=6 / nr=0 / decimate=1 / mbaff=0 / bframes=4 / b_pyramid=0 / b_adapt=2 / b_bias=0 / direct=3 / wpredb=1 / keyint=250 / keyint_min=25 / scenecut=40 / rc_lookahead=70 / rc=2pass / mbtree=1 / bitrate=15117 / ratetol=1.0 / qcomp=0.70 / qpmin=10 / qpmax=51 / qpstep=4 / cplxblur=20.0 / qblur=0.5 / vbv_maxrate=50000 / vbv_bufsize=50000 / ip_ratio=1.30 / aq=1:0.80

Language : German

Default : Yes

Forced : No

 

Audio

ID : 2

Format : DTS

Format/Info : Digital Theater Systems

Mode : 16

Format settings, Endianness : Big

Codec ID : A_DTS

Duration : 1h 59mn

Bit rate mode : Constant

Bit rate : 1 509 Kbps

Channel(s) : 6 channels

Channel positions : Front: L C R, Side: L R, LFE

Sampling rate : 48.0 KHz

Bit depth : 24 bits

Compression mode : Lossy

Stream size : 1.26 GiB (9%)

Title : 5.1 DTS @ 1536 kbps

Language : English

Default : Yes

Forced : No

 

Text #1

ID : 3

Format : UTF-8

Codec ID : S_TEXT/UTF8

Codec ID/Info : UTF-8 Plain Text

Title : FORCED

Language : German

Default : No

Forced : No

 

Text #2

ID : 4

Format : UTF-8

Codec ID : S_TEXT/UTF8

Codec ID/Info : UTF-8 Plain Text

Title : FORCED

Language : French

Default : No

Forced : No

 

Text #3

ID : 5

Format : UTF-8

Codec ID : S_TEXT/UTF8

Codec ID/Info : UTF-8 Plain Text

Language : German

Default : No

Forced : No

 

Text #4

ID : 6

Format : UTF-8

Codec ID : S_TEXT/UTF8

Codec ID/Info : UTF-8 Plain Text

Language : English

Default : No

Forced : No

 

Menu

00:00:00.000 : en:00:00:00.000

00:07:18.271 : en:00:07:18.271

00:11:47.457 : en:00:11:47.457

00:16:21.731 : en:00:16:21.731

00:22:15.543 : en:00:22:15.543

00:26:00.017 : en:00:26:00.017

00:32:55.557 : en:00:32:55.557

00:33:57.535 : en:00:33:57.535

00:40:11.075 : en:00:40:11.075

00:47:33.809 : en:00:47:33.809

00:54:56.752 : en:00:54:56.752

00:57:23.190 : en:00:57:23.190

01:02:37.587 : en:01:02:37.587

01:10:41.696 : en:01:10:41.696

01:17:35.985 : en:01:17:35.985

01:19:15.417 : en:01:19:15.417

01:22:03.794 : en:01:22:03.794

01:25:22.993 : en:01:25:22.993

01:29:15.850 : en:01:29:15.850

01:34:18.403 : en:01:34:18.403

01:39:24.125 : en:01:39:24.125

01:47:10.674 : en:01:47:10.674

01:48:34.049 : en:01:48:34.049

01:54:39.581 : en:01:54:39.581

 

 

MaJL4.png

C4MOy.png

ZeQkoV8.png

 

Rocky II (1979) 1080p BluRay DTS x264-HDC

36049062271763119231.jpg

f1USP.png

http://www.imdb.com/title/tt0079817/

Υπόθεση :

Μετά τον μεγάλο του αγώνα με τον Απολο Κριντ, ο Ρόκι αποφασίζει να αφιερωθεί σε μια ήσυχη οικογενειακή ζωή, όμως αδυνατώντας να βρει άλλη δουλειά, αναγκάζεται να δεχτεί την πρόταση του Κριντ για έναν ακόμα σκληρό αγώνα μεταξύ τους…

qpxob.png

Είδος Ταινίας:

Action | Drama | Romance

Σκηνοθέτης:

Sylvester Stallone

Σενάριο:

Sylvester Stallone

Ηθοποιοί:

Sylvester Stallone, Burgess Meredith, Burt Young, Talia Shire, Joe Spinell, Carl Weathers, Tony Burton

Format :

MKV

Ανάλυση :

1920X1040

Μέγεθος :

14,6 GB

Διάρκεια:

1:59:10

Γλώσσα:

Αγγλικά

Yπότιτλοι:

Ελληνικοί Εξωτερικοί

 

 

General

Format : Matroska

Format version : Version 1

File size : 14.6 GiB

Duration : 1h 59mn

Overall bit rate : 17.6 Mbps

Encoded date : UTC 2009-10-10 21:17:42

Writing application : mkvmerge v2.5.3 ('Boogie') built on Mar 7 2009 15:00:41

Writing library : libebml v0.7.7 + libmatroska v0.8.1

 

Video

ID : 1

Format : AVC

Format/Info : Advanced Video Codec

Format profile :

Format settings, CABAC : Yes

Format settings, ReFrames : 4 frames

Codec ID : V_MPEG4/ISO/AVC

Duration : 1h 59mn

Bit rate : 16.0 Mbps

Width : 1 920 pixels

Height : 1 040 pixels

Display aspect ratio : 1.85:1

Frame rate mode : Constant

Frame rate : 23.976 fps

Color space : YUV

Chroma subsampling : 4:2:0

Bit depth : 8 bits

Scan type : Progressive

Bits/(Pixel*Frame) : 0.335

Stream size : 13.1 GiB (89%)

Title : 16 Mbps AVC MPEG-4

Writing library : x264 core 76 r1271M 496d79d

Encoding settings : cabac=1 / ref=4 / deblock=1:-3:-3 / analyse=0x3:0x113 / me=umh / subme=9 / psy=1 / psy_rd=1.0:0.0 / mixed_ref=1 / me_range=24 / chroma_me=1 / trellis=2 / 8x8dct=1 / cqm=0 / deadzone=21,11 / chroma_qp_offset=-2 / threads=6 / nr=0 / decimate=1 / mbaff=0 / bframes=4 / b_pyramid=0 / b_adapt=2 / b_bias=0 / direct=3 / wpredb=1 / keyint=250 / keyint_min=25 / scenecut=40 / rc_lookahead=70 / rc=2pass / mbtree=1 / bitrate=16039 / ratetol=1.0 / qcomp=0.70 / qpmin=10 / qpmax=51 / qpstep=4 / cplxblur=20.0 / qblur=0.5 / vbv_maxrate=50000 / vbv_bufsize=50000 / ip_ratio=1.30 / aq=1:0.80

Language : English

Default : Yes

Forced : No

 

Audio

ID : 2

Format : DTS

Format/Info : Digital Theater Systems

Mode : 16

Format settings, Endianness : Big

Codec ID : A_DTS

Duration : 1h 59mn

Bit rate mode : Constant

Bit rate : 1 509 Kbps

Channel(s) : 6 channels

Channel positions : Front: L C R, Side: L R, LFE

Sampling rate : 48.0 KHz

Bit depth : 24 bits

Compression mode : Lossy

Stream size : 1.26 GiB (9%)

Title : 5.1 DTS @ 1536 kbps

Language : English

Default : Yes

Forced : No

 

Text #1

ID : 3

Format : UTF-8

Codec ID : S_TEXT/UTF8

Codec ID/Info : UTF-8 Plain Text

Language : German

Default : No

Forced : No

 

Text #2

ID : 4

Format : UTF-8

Codec ID : S_TEXT/UTF8

Codec ID/Info : UTF-8 Plain Text

Language : English

Default : No

Forced : No

 

Text #3

ID : 5

Format : UTF-8

Codec ID : S_TEXT/UTF8

Codec ID/Info : UTF-8 Plain Text

Title : FORCED

Language : German

Default : No

Forced : No

 

Menu

00:00:00.000 : en:00:00:00.000

00:07:50.053 : en:00:07:50.053

00:14:07.013 : en:00:14:07.013

00:22:02.905 : en:00:22:02.905

00:29:24.513 : en:00:29:24.513

00:40:48.905 : en:00:40:48.905

00:49:56.452 : en:00:49:56.452

01:01:53.668 : en:01:01:53.668

01:04:21.524 : en:01:04:21.524

01:12:01.734 : en:01:12:01.734

01:17:00.574 : en:01:17:00.574

01:26:27.766 : en:01:26:27.766

01:32:41.097 : en:01:32:41.097

01:41:27.540 : en:01:41:27.540

01:51:54.541 : en:01:51:54.541

01:54:41.291 : en:01:54:41.291

 

 

MaJL4.png

C4MOy.png

ZeQkoV8.png

 

Rocky III (1982) 1080p BluRay DTS x264-HDC

67466091577974849778.jpg

f1USP.png

http://www.imdb.com/title/tt0084602/

Υπόθεση :

Έχοντας ήδη νικήσει τον Απολο Κριντ δύο φορές, ο Ροκι απολαμβάνει την οικογενειακή ζωή και τον τίτλο του ως παγκόσμιος πρωταθλητής. Παίζει μόνο με εύκολους αντιπάλους, μέχρι που τον προκαλεί ο ανερχόμενος μποξέρ Κλάμπερ Λανγκ. Ο Ροκι δέχεται την πρόκληση αλλά χάνει τον αγώνα. Σ’ αυτή τη φάση πεθαίνει και ο προπονητής του και ο Ρόκι πέφτει σε κατάθλιψη, καθώς κανένας δεν πιστεύει σ’ αυτόν πια. Κανένας εκτός από τον πρώην αντίπαλο του Απόλο Κριντ, με τον οποίο απολαμβάνει τώρα μια θαυμάσια φιλία. Ο Απολο προσφέρεται να τον προπονήσει ο ίδιος για να διεκδικήσει ξανά τον τίτλο του από τον Λανγκ.

qpxob.png

Είδος Ταινίας:

Action | Drama | Sport

Σκηνοθέτης:

Sylvester Stallone

Σενάριο:

Sylvester Stallone

Ηθοποιοί:

Sylvester Stallone, Burgess Meredith, Burt Young, Talia Shire, Carl Weathers, Tony Burton, Hulk Hogan

Format :

MKV

Ανάλυση :

1920X1040

Μέγεθος :

12,9 GB

Διάρκεια:

1:39:38

Γλώσσα:

Αγγλικά

Yπότιτλοι:

Ελληνικοί Εξωτερικοί

 

 

General

Format : Matroska

Format version : Version 1

File size : 12.9 GiB

Duration : 1h 39mn

Overall bit rate mode : Variable

Overall bit rate : 18.5 Mbps

Encoded date : UTC 2009-10-13 08:44:59

Writing application : mkvmerge v2.5.3 ('Boogie') built on Mar 7 2009 15:00:41

Writing library : libebml v0.7.7 + libmatroska v0.8.1

 

Video

ID : 1

Format : AVC

Format/Info : Advanced Video Codec

Format profile : [email protected].1

Format settings, CABAC : Yes

Format settings, ReFrames : 4 frames

Codec ID : V_MPEG4/ISO/AVC

Duration : 1h 39mn

Nominal bit rate : 16.2 Mbps

Width : 1 920 pixels

Height : 1 040 pixels

Display aspect ratio : 1.85:1

Frame rate mode : Constant

Frame rate : 23.976 fps

Color space : YUV

Chroma subsampling : 4:2:0

Bit depth : 8 bits

Scan type : Progressive

Bits/(Pixel*Frame) : 0.339

Title : 16 Mbps AVC MPEG-4

Writing library : x264 core 76 r1271M 496d79d

Encoding settings : cabac=1 / ref=4 / deblock=1:-3:-3 / analyse=0x3:0x113 / me=umh / subme=9 / psy=1 / psy_rd=1.0:0.0 / mixed_ref=1 / me_range=24 / chroma_me=1 / trellis=2 / 8x8dct=1 / cqm=0 / deadzone=21,11 / chroma_qp_offset=-2 / threads=6 / nr=0 / decimate=1 / mbaff=0 / bframes=4 / b_pyramid=0 / b_adapt=2 / b_bias=0 / direct=3 / wpredb=1 / keyint=250 / keyint_min=25 / scenecut=40 / rc_lookahead=70 / rc=2pass / mbtree=1 / bitrate=16229 / ratetol=1.0 / qcomp=0.70 / qpmin=10 / qpmax=51 / qpstep=4 / cplxblur=20.0 / qblur=0.5 / vbv_maxrate=50000 / vbv_bufsize=50000 / ip_ratio=1.30 / aq=1:1.00

Language : German

Default : Yes

Forced : No

 

Audio

ID : 2

Format : DTS

Format/Info : Digital Theater Systems

Format profile : MA / Core

Mode : 16

Format settings, Endianness : Big

Codec ID : A_DTS

Duration : 1h 39mn

Bit rate mode : Variable

Bit rate : Unknown / 1 509 Kbps

Channel(s) : 6 channels

Channel positions : Front: L C R, Side: L R, LFE

Sampling rate : 48.0 KHz

Bit depth : 24 bits

Compression mode : Lossless / Lossy

Title : 5.1 DTS @ 1536 kbps

Language : English

Default : Yes

Forced : No

 

Text #1

ID : 3

Format : UTF-8

Codec ID : S_TEXT/UTF8

Codec ID/Info : UTF-8 Plain Text

Language : English

Default : No

Forced : No

 

Text #2

ID : 5

Format : UTF-8

Codec ID : S_TEXT/UTF8

Codec ID/Info : UTF-8 Plain Text

Language : German

Default : No

Forced : No

 

Text #3

ID : 4

Format : UTF-8

Codec ID : S_TEXT/UTF8

Codec ID/Info : UTF-8 Plain Text

Title : FORCED

Language : German

Default : No

Forced : No

 

Menu

00:00:00.000 : en:00:00:00.000

00:03:12.442 : en:00:03:12.442

00:06:51.953 : en:00:06:51.953

00:12:58.736 : en:00:12:58.736

00:23:07.636 : en:00:23:07.636

00:33:45.941 : en:00:33:45.941

00:37:56.816 : en:00:37:56.816

00:48:27.154 : en:00:48:27.154

00:54:41.695 : en:00:54:41.695

00:58:54.948 : en:00:58:54.948

01:03:39.482 : en:01:03:39.482

01:10:44.615 : en:01:10:44.615

01:15:28.691 : en:01:15:28.691

01:18:54.146 : en:01:18:54.146

01:34:32.959 : en:01:34:32.959

01:36:25.238 : en:01:36:25.238

 

 

MaJL4.png

C4MOy.png

ZeQkoV8.png

 

Rocky IV (1985) 1080p BluRay DTS x264-HDC

34663398534681029087.jpg

f1USP.png

http://www.imdb.com/title/tt0089927/

Υπόθεση :

Όταν ο παλιός και πολύ καλός φίλος του Ρόκι, Απόλο, πέφτει νεκρός στο ρινγκ από τον Ρώσο αντίπαλο του, Ιβάν Ντράγκο, ο Ρόκι κατηγορεί τον εαυτό του γι’ αυτό και αποφασίζει να προκαλέσει τον Ντραγκο σε αγώνα για να εκδικηθεί το θάνατο του φίλου του.

qpxob.png

Είδος Ταινίας:

Action | Drama | Sport

Σκηνοθέτης:

Sylvester Stallone

Σενάριο:

Sylvester Stallone

Ηθοποιοί:

Sylvester Stallone, Brigitte Nielsen, Dolph Lundgren, Burt Young, Talia Shire, Michael Pataki, Carl Weathers,Tony Burton

Format :

MKV

Ανάλυση :

1920X1040

Μέγεθος :

12,7 GB

Διάρκεια:

1:31:31

Γλώσσα:

Αγγλικά

Yπότιτλοι:

Ελληνικοί Εξωτερικοί

 

 

General

Format : Matroska

Format version : Version 1

File size : 12.7 GiB

Duration : 1h 31mn

Overall bit rate : 19.8 Mbps

Encoded date : UTC 2009-10-14 19:58:46

Writing application : mkvmerge v2.5.3 ('Boogie') built on Mar 7 2009 15:00:41

Writing library : libebml v0.7.7 + libmatroska v0.8.1

 

Video

ID : 1

Format : AVC

Format/Info : Advanced Video Codec

Format profile : [email protected].1

Format settings, CABAC : Yes

Format settings, ReFrames : 4 frames

Codec ID : V_MPEG4/ISO/AVC

Duration : 1h 31mn

Bit rate : 18.3 Mbps

Width : 1 920 pixels

Height : 1 040 pixels

Display aspect ratio : 1.85:1

Frame rate mode : Constant

Frame rate : 23.976 fps

Color space : YUV

Chroma subsampling : 4:2:0

Bit depth : 8 bits

Scan type : Progressive

Bits/(Pixel*Frame) : 0.382

Stream size : 11.4 GiB (90%)

Title : 18 Mbps AVC MPEG-4

Writing library : x264 core 76 r1271M 496d79d

Encoding settings : cabac=1 / ref=4 / deblock=1:-3:-3 / analyse=0x3:0x113 / me=umh / subme=9 / psy=1 / psy_rd=1.0:0.0 / mixed_ref=1 / me_range=24 / chroma_me=1 / trellis=2 / 8x8dct=1 / cqm=0 / deadzone=21,11 / chroma_qp_offset=-2 / threads=6 / nr=0 / decimate=1 / mbaff=0 / bframes=4 / b_pyramid=0 / b_adapt=2 / b_bias=0 / direct=3 / wpredb=1 / keyint=250 / keyint_min=25 / scenecut=40 / rc_lookahead=70 / rc=2pass / mbtree=1 / bitrate=18296 / ratetol=1.0 / qcomp=0.70 / qpmin=10 / qpmax=51 / qpstep=4 / cplxblur=20.0 / qblur=0.5 / vbv_maxrate=50000 / vbv_bufsize=50000 / ip_ratio=1.30 / aq=1:1.00

Language : English

Default : Yes

Forced : No

 

Audio

ID : 2

Format : DTS

Format/Info : Digital Theater Systems

Mode : 16

Format settings, Endianness : Big

Codec ID : A_DTS

Duration : 1h 31mn

Bit rate mode : Constant

Bit rate : 1 509 Kbps

Channel(s) : 6 channels

Channel positions : Front: L C R, Side: L R, LFE

Sampling rate : 48.0 KHz

Bit depth : 24 bits

Compression mode : Lossy

Stream size : 988 MiB (8%)

Title : 5.1 DTS @ 1536 kbps

Language : English

Default : No

Forced : No

 

Text #1

ID : 3

Format : UTF-8

Codec ID : S_TEXT/UTF8

Codec ID/Info : UTF-8 Plain Text

Title : FORCED

Language : German

Default : No

Forced : No

 

Text #2

ID : 4

Format : UTF-8

Codec ID : S_TEXT/UTF8

Codec ID/Info : UTF-8 Plain Text

Language : German

Default : No

Forced : No

 

Text #3

ID : 5

Format : UTF-8

Codec ID : S_TEXT/UTF8

Codec ID/Info : UTF-8 Plain Text

Language : English

Default : No

Forced : No

 

Menu

00:00:00.000 : en:00:00:00.000

00:08:04.818 : en:00:08:04.818

00:12:33.586 : en:00:12:33.586

00:20:11.210 : en:00:20:11.210

00:26:20.037 : en:00:26:20.037

00:33:56.868 : en:00:33:56.868

00:41:20.770 : en:00:41:20.770

00:45:47.036 : en:00:45:47.036

00:48:22.900 : en:00:48:22.900

00:55:06.970 : en:00:55:06.970

00:59:57.761 : en:00:59:57.761

01:04:11.264 : en:01:04:11.264

01:09:59.487 : en:01:09:59.487

01:20:39.376 : en:01:20:39.376

01:24:51.211 : en:01:24:51.211

01:27:22.946 : en:01:27:22.946

 

 

MaJL4.png

C4MOy.png

ZeQkoV8.png

 

Rocky V (1990) 1080p BluRay DTS x264-HDC

47251658504866149172.jpg

f1USP.png

http://www.imdb.com/title/tt0100507/

Υπόθεση :

Μετά τον σκληρό αγώνα με τον Ρώσο αντίπαλο, Ιβάν Ντράγκο, ο Ρόκι αναγκάζεται να εγκαταλείψει την πυγμαχία, καθώς έχει υποστεί μόνιμη ζημία σωματικά. Όταν επιστρέφει, ο λογιστής του έχει καταχραστεί όλη του την περιουσία και έτσι ο Ρόκι αρχίζει να προπονεί τον ανερχόμενο μποξέρ Τόμι Γκαν..

qpxob.png

Είδος Ταινίας:

Action | Drama | Sport

Σκηνοθέτης:

John G. Avildsen

Σενάριο:

Sylvester Stallone

Ηθοποιοί:

Sylvester Stallone, Burgess Meredith, Burt Young, Talia Shire, Tony Burton, Tommy Morrison, Joe Spinell, Carl Weathers, Thayer David

Format :

MKV

Ανάλυση :

1920X1040

Μέγεθος :

9,99 GB

Διάρκεια:

1:44:10

Γλώσσα:

Αγγλικά

Yπότιτλοι:

Ελληνικοί Εξωτερικοί

 

 

General

Format : Matroska

Format version : Version 1

File size : 9.99 GiB

Duration : 1h 44mn

Overall bit rate : 13.7 Mbps

Encoded date : UTC 2009-10-17 10:46:11

Writing application : mkvmerge v2.5.3 ('Boogie') built on Mar 7 2009 15:00:41

Writing library : libebml v0.7.7 + libmatroska v0.8.1

 

Video

ID : 1

Format : AVC

Format/Info : Advanced Video Codec

Format profile : [email protected].1

Format settings, CABAC : Yes

Format settings, ReFrames : 4 frames

Codec ID : V_MPEG4/ISO/AVC

Duration : 1h 44mn

Bit rate : 12.2 Mbps

Width : 1 920 pixels

Height : 1 040 pixels

Display aspect ratio : 1.85:1

Frame rate mode : Constant

Frame rate : 23.976 fps

Color space : YUV

Chroma subsampling : 4:2:0

Bit depth : 8 bits

Scan type : Progressive

Bits/(Pixel*Frame) : 0.255

Stream size : 8.70 GiB (87%)

Title : 12 Mbps AVC MPEG-4

Writing library : x264 core 76 r1271M 496d79d

Encoding settings : cabac=1 / ref=4 / deblock=1:-3:-3 / analyse=0x3:0x113 / me=umh / subme=9 / psy=1 / psy_rd=1.0:0.0 / mixed_ref=1 / me_range=24 / chroma_me=1 / trellis=2 / 8x8dct=1 / cqm=0 / deadzone=21,11 / chroma_qp_offset=-2 / threads=6 / nr=0 / decimate=1 / mbaff=0 / bframes=4 / b_pyramid=0 / b_adapt=2 / b_bias=0 / direct=3 / wpredb=1 / keyint=250 / keyint_min=25 / scenecut=40 / rc_lookahead=70 / rc=2pass / mbtree=1 / bitrate=12222 / ratetol=1.0 / qcomp=0.70 / qpmin=10 / qpmax=51 / qpstep=4 / cplxblur=20.0 / qblur=0.5 / vbv_maxrate=50000 / vbv_bufsize=50000 / ip_ratio=1.30 / aq=1:1.00

Language : English

Default : Yes

Forced : No

 

Audio

ID : 2

Format : DTS

Format/Info : Digital Theater Systems

Mode : 16

Format settings, Endianness : Big

Codec ID : A_DTS

Duration : 1h 44mn

Bit rate mode : Constant

Bit rate : 1 509 Kbps

Channel(s) : 6 channels

Channel positions : Front: L C R, Side: L R, LFE

Sampling rate : 48.0 KHz

Bit depth : 24 bits

Compression mode : Lossy

Stream size : 1.10 GiB (11%)

Title : 5.1 DTS @ 1536 kbps

Language : English

Default : Yes

Forced : No

 

Text #1

ID : 3

Format : UTF-8

Codec ID : S_TEXT/UTF8

Codec ID/Info : UTF-8 Plain Text

Title : FORCED

Language : German

Default : No

Forced : No

 

Text #2

ID : 4

Format : UTF-8

Codec ID : S_TEXT/UTF8

Codec ID/Info : UTF-8 Plain Text

Language : German

Default : No

Forced : No

 

Text #3

ID : 5

Format : UTF-8

Codec ID : S_TEXT/UTF8

Codec ID/Info : UTF-8 Plain Text

Language : English

Default : No

Forced : No

 

Menu

00:00:00.000 : en:00:00:00.000

00:05:26.326 : en:00:05:26.326

00:09:31.571 : en:00:09:31.571

00:14:58.523 : en:00:14:58.523

00:20:10.376 : en:00:20:10.376

00:26:51.693 : en:00:26:51.693

00:32:25.402 : en:00:32:25.402

00:38:22.675 : en:00:38:22.675

00:43:52.129 : en:00:43:52.129

00:51:32.047 : en:00:51:32.047

00:58:16.952 : en:00:58:16.952

01:03:51.786 : en:01:03:51.786

01:15:59.513 : en:01:15:59.513

01:18:50.809 : en:01:18:50.809

01:24:31.817 : en:01:24:31.817

01:38:39.580 : en:01:38:39.580

 

 

MaJL4.png

C4MOy.png

ZeQkoV8.png

 

Rocky Balboa (2006) 1080p BluRay DTS x264-HDC

26790949951496318451.jpg

f1USP.png

http://www.imdb.com/title/tt0479143/

Υπόθεση :

Τριάντα χρόνια πριν, η μοίρα τού πρόσφερε την σπάνια ευκαιρία να ανταγωνιστεί στο ρινγκ τον πρωταθλητή Απόλο Κριντ. Το θάρρος και η επιμονή του, τόσο στη ζωή όσο και στο ρινγκ έδωσαν ελπίδα σε εκατομμύρια ανθρώπους. Τώρα που η δόξα έσβησε, ο Ρόκι περνάει τα απογεύματά του λέγοντας ιστορίες στους θαμώνες του εστιατορίου του. Ο γιος του είναι πολύ απασχολημένος με τη δική του ζωή για να ασχοληθεί με τον πατέρα του που είναι μόνος. Ακόμη κι αν ο χρόνος έχει αφήσει τα σημάδια του στο σώμα, η καρδιά του Ρόκι χτυπά όπως τότε... Η ευκαιρία που γύρευε να αποδείξει στον εαυτό του αλλά και σε αυτούς που αγαπά ότι η ψυχή είναι πιο δυνατή από το σώμα, βρίσκεται τώρα μπροστά του, στο ρινγκ και ονομάζεται Ντίξον.

qpxob.png

Είδος Ταινίας:

Action | Drama | Romance

Σκηνοθέτης:

Sylvester Stallone

Σενάριο:

Sylvester Stallone

Ηθοποιοί:

Sylvester Stallone, Henry G. Sanders, A.J. Benza, Tony Burton, James Francis Kelly III, Geraldine Hughes, Milo Ventimiglia, Burt Young

Format :

MKV

Ανάλυση :

1920X1038

Μέγεθος :

12,4 GB

Διάρκεια:

1:41:46

Γλώσσα:

Αγγλικά

Yπότιτλοι:

Ελληνικοί Εξωτερικοί

 

 

General

Format : Matroska

Format version : Version 1

File size : 12.4 GiB

Duration : 1h 41mn

Overall bit rate mode : Variable

Overall bit rate : 17.4 Mbps

Encoded date : UTC 2009-10-25 12:54:18

Writing application : mkvmerge v2.5.3 ('Boogie') built on Mar 7 2009 15:00:41

Writing library : libebml v0.7.7 + libmatroska v0.8.1

 

Video

ID : 1

Format : AVC

Format/Info : Advanced Video Codec

Format profile : [email protected].1

Format settings, CABAC : Yes

Format settings, ReFrames : 4 frames

Codec ID : V_MPEG4/ISO/AVC

Duration : 1h 41mn

Bit rate : 15.8 Mbps

Width : 1 920 pixels

Height : 1 038 pixels

Display aspect ratio : 1.85:1

Frame rate mode : Constant

Frame rate : 23.976 fps

Color space : YUV

Chroma subsampling : 4:2:0

Bit depth : 8 bits

Scan type : Progressive

Bits/(Pixel*Frame) : 0.331

Stream size : 11.0 GiB (89%)

Title : 15 Mbps AVC MPEG-4

Writing library : x264 core 75 r1259M dd026f2

Encoding settings : cabac=1 / ref=4 / deblock=1:-3:-3 / analyse=0x3:0x113 / me=umh / subme=9 / psy=1 / psy_rd=1.3:0.0 / mixed_ref=1 / me_range=24 / chroma_me=1 / trellis=2 / 8x8dct=1 / cqm=0 / deadzone=21,11 / chroma_qp_offset=-2 / threads=6 / nr=0 / decimate=1 / mbaff=0 / bframes=5 / b_pyramid=0 / b_adapt=2 / b_bias=0 / direct=3 / wpredb=1 / keyint=250 / keyint_min=25 / scenecut=40 / rc_lookahead=70 / rc=2pass / mbtree=1 / bitrate=15800 / ratetol=1.0 / qcomp=0.80 / qpmin=10 / qpmax=51 / qpstep=4 / cplxblur=20.0 / qblur=0.5 / ip_ratio=1.30 / aq=1:0.80

Language : English

Default : Yes

Forced : No

 

Audio #1

ID : 3

Format : Vorbis

Format settings, Floor : 1

Codec ID : A_VORBIS

Duration : 1h 41mn

Bit rate mode : Variable

Bit rate : 80.0 Kbps

Channel(s) : 2 channels

Sampling rate : 48.0 KHz

Compression mode : Lossy

Stream size : 58.2 MiB (0%)

Title : 2.0 OGG @ 80 kbps - commentary Sylvester Stallone

Writing library : aoTuV b5c (UTC 2008-12-15)

Language : English

Default : No

Forced : No

 

Audio #2

ID : 2

Format : DTS

Format/Info : Digital Theater Systems

Mode : 16

Format settings, Endianness : Big

Codec ID : A_DTS

Duration : 1h 41mn

Bit rate mode : Constant

Bit rate : 1 509 Kbps

Channel(s) : 6 channels

Channel positions : Front: L C R, Side: L R, LFE

Sampling rate : 48.0 KHz

Bit depth : 24 bits

Compression mode : Lossy

Stream size : 1.07 GiB (9%)

Title : 5.1 DTS @ 1536 kbps

Language : English

Default : Yes

Forced : No

 

Text #1

ID : 4

Format : UTF-8

Codec ID : S_TEXT/UTF8

Codec ID/Info : UTF-8 Plain Text

Title : FORCED

Language : German

Default : No

Forced : No

 

Text #2

ID : 5

Format : UTF-8

Codec ID : S_TEXT/UTF8

Codec ID/Info : UTF-8 Plain Text

Title : FORCED

Language : French

Default : No

Forced : No

 

Text #3

ID : 6

Format : UTF-8

Codec ID : S_TEXT/UTF8

Codec ID/Info : UTF-8 Plain Text

Language : German

Default : No

Forced : No

 

Text #4

ID : 7

Format : UTF-8

Codec ID : S_TEXT/UTF8

Codec ID/Info : UTF-8 Plain Text

Language : English

Default : No

Forced : No

 

Text #5

ID : 8

Format : UTF-8

Codec ID : S_TEXT/UTF8

Codec ID/Info : UTF-8 Plain Text

Title : commentary Sylvester Stallone

Language : German

Default : No

Forced : No

 

Menu

00:00:00.000 : en:00:00:00.000

00:11:38.114 : en:00:11:38.114

00:16:42.877 : en:00:16:42.877

00:25:20.978 : en:00:25:20.978

00:30:46.678 : en:00:30:46.678

00:40:48.655 : en:00:40:48.655

00:43:18.429 : en:00:43:18.429

00:46:09.642 : en:00:46:09.642

00:51:22.579 : en:00:51:22.579

01:00:41.972 : en:01:00:41.972

01:05:03.650 : en:01:05:03.650

01:06:26.566 : en:01:06:26.566

01:13:23.816 : en:01:13:23.816

01:21:23.796 : en:01:21:23.796

01:29:48.133 : en:01:29:48.133

01:33:10.710 : en:01:33:10.710

 

 

MaJL4.png

C4MOy.png

ZeQkoV8.png

  • Like 1

Share this post


Link to post
Δημοσίευση σε άλλες σελίδες

Δημιουργήστε ένα λογαριασμό ή συνδεθείτε για να σχολιάσετε

Χρειάζεται να είστε χρήστης για να μπορέσετε να σχολιάσετε

Δημιουργία λογαριασμού

Εγγραφείτε για ένα νέο λογαριασμό στην κοινότητά μας. Είναι εύκολο!

Εγγραφή νέου λογαριασμού

Συνδεθείτε

Έχετε ήδη λογαριασμό? Συνδεθείτε εδώ.

Συνδεθείτε τώρα
    • 1 Posts
    • 72 Views

×