Πήγαινε στο περιεχόμενο
Lusion

THE VOICES (2014) LIMITED 720p BluRay X264-AMIABLE

Recommended Posts

THE VOICES (2014)

Ξεχωριστοί Ελληνικοί Υπότιτλοι

 

04795735922379267809.jpg

 

90919314693054492500.jpg

 

 

Σκηνοθεσία: Marjane Satrapi

Σενάριο: Michael R. Perry

Ηθοποιοί: Ryan Reynolds, Gemma Arterton, Anna Kendrick

Είδος: Comedy | Crime | Thriller

Πρεμιέρα: 6 February 2015 (USA)

Yπότιτλοι: Eλληνικοί Ξεχωριστοί

Μετάφραση: Adespoti - Deykalionas

 

 

 

http://www.imdb.com/title/tt1567437/

Ο Τζέρι, ένας αξιαγάπητος υπάλληλος εργοστασίου με ψυχικές διαταραχές συμπαθεί πολύ μια γυναίκα που εργάζεται στο λογιστήριο. Η ξαφνική δολοφονία της γυναίκας θα τον οδηγήσει σε ένα παράξενο μονοπάτι, ενώ η συνομιλία του με τα ομιλούντα κατοικίδιά του, μια γάτα κι έναν σκύλο, θα τον βοηθήσουν να βρει τη λύτρωση.

 

 

 

Format : Matroska

Format version : Version 2

File size : 4.37 GiB

Duration : 1h 43mn

Overall bit rate : 6 039 Kbps

Writing application : mkvmerge v6.6.0 ('The Edge Of The In Between') built on Dec 1 2013 17:55:00

Writing library : libebml v1.3.0 + libmatroska v1.4.1

 

Video

ID : 1

Format : AVC

Format/Info : Advanced Video Codec

Format profile : [email protected]

Format settings, CABAC : Yes

Format settings, ReFrames : 5 frames

Codec ID : V_MPEG4/ISO/AVC

Duration : 1h 43mn

Bit rate : 4 528 Kbps

Width : 1 280 pixels

Height : 544 pixels

Display aspect ratio : 2.35:1

Frame rate : 23.976 fps

Color space : YUV

Chroma subsampling : 4:2:0

Bit depth : 8 bits

Scan type : Progressive

Bits/(Pixel*Frame) : 0.271

Stream size : 3.19 GiB (73%)

Writing library : x264 core 146 r2538 121396c

Encoding settings : cabac=1 / ref=5 / deblock=1:-3:-3 / analyse=0x3:0x113 / me=umh / subme=8 / psy=1 / psy_rd=1.00:0.00 / mixed_ref=1 / me_range=16 / chroma_me=1 / trellis=1 / 8x8dct=1 / cqm=0 / deadzone=21,11 / fast_pskip=1 / chroma_qp_offset=-2 / threads=24 / lookahead_threads=4 / sliced_threads=0 / nr=0 / decimate=1 / interlaced=0 / bluray_compat=0 / constrained_intra=0 / bframes=3 / b_pyramid=2 / b_adapt=2 / b_bias=0 / direct=3 / weightb=1 / open_gop=0 / weightp=2 / keyint=240 / keyint_min=24 / scenecut=40 / intra_refresh=0 / rc_lookahead=50 / rc=2pass / mbtree=1 / bitrate=4528 / ratetol=1.0 / qcomp=0.60 / qpmin=0 / qpmax=69 / qpstep=4 / cplxblur=20.0 / qblur=0.5 / ip_ratio=1.40 / aq=1:1.00

Language : English

Default : Yes

Forced : No

 

Audio

ID : 2

Format : DTS

Format/Info : Digital Theater Systems

Codec ID : A_DTS

Duration : 1h 43mn

Bit rate mode : Constant

Bit rate : 1 510 Kbps

Channel(s) : 6 channels

Channel positions : Front: L C R, Side: L R, LFE

Sampling rate : 48.0 KHz

Bit depth : 24 bits

Compression mode : Lossy

Stream size : 1.09 GiB (25%)

Language : English

Default : Yes

Forced : No

 

 

 

https://www.youtube.com/watch?v=5IaPaB4Pzqk

 

 

 

 

WORLDBYTEZ

Kρυφό περιεχόμενο

    Απάντηση σε αυτό το θέμα για να δείτε το κρυφό περιεχόμενο.

Share this post


Link to post
Δημοσίευση σε άλλες σελίδες

Δημιουργήστε ένα λογαριασμό ή συνδεθείτε για να σχολιάσετε

Χρειάζεται να είστε χρήστης για να μπορέσετε να σχολιάσετε

Δημιουργία λογαριασμού

Εγγραφείτε για ένα νέο λογαριασμό στην κοινότητά μας. Είναι εύκολο!

Εγγραφή νέου λογαριασμού

Συνδεθείτε

Έχετε ήδη λογαριασμό? Συνδεθείτε εδώ.

Συνδεθείτε τώρα