Πήγαινε στο περιεχόμενο
admin

THE MAGNIFICENT SEVEN (2016) 1080p BluRay x264-SPARKS

Recommended Posts

THE MAGNIFICENT SEVEN (2016)

Ξεχωριστοί Ελληνικοί Υπότιτλοι

 

69225218305023939012.jpg

 

55155724175199010655.jpg

 

 

Είδος: Action, Adventure, Western

Σκηνοθεσία: Antoine Fuqua

Σενάριο: Akira Kurosawa, Shinobu Hashimoto

Ηθοποιοί: Denzel Washington, Chris Pratt, Ethan Hawke

Πρεμιέρα : 22 September 2016 (Greece)

Yπότιτλοι: Ελληνικοί Ξεχωριστοί

Μετάφραση: Άγνωστος

 

 

78167258268745496963.png

 

http://www.imdb.com/title/tt2404435/
ΥΠΟΘΕΣΗ

Με την πόλη του Rose Creek κάτω από τον σκοτεινό έλεγχο του Μαρθόλομιου Μπογκ, οι απελπισμένοι κάτοικοι ζητούν βοήθεια από επτά κακοποιούς, κυνηγούς κεφαλών, απατεώνες και οπλισμένους άνδρες: ο Σαμ Τσίσολμ, ο Τζον Φαραντέι, ο Γκουντνάιτ Ρομπισό, ο Τζακ Χορν, ο Μπίλι Ροκς, ο Βάσκεζ και ο Ρεντ Χάρβεστ. Όσο η πόλη προετοιμάζεται για την τελική αναμέτρηση που έρχεται, η ομάδα των 7 μοιάζει να πολεμάει για κάτι περισσότερο από τα χρήματα.

 

 

 

Media Info

 

 

General

Format : Matroska

Format version : Version 4 / Version 2

File size : 9.84 GiB

Duration : 2h 12mn

Overall bit rate : 10.6 Mbps

Encoded date : UTC 2016-12-06 01:44:48

Writing application : mkvmerge v8.3.0 ('Over the Horizon') 64bit

Writing library : libebml v1.3.1 + libmatroska v1.4.2

 

Video

ID : 1

Format : AVC

Format/Info : Advanced Video Codec

Format profile : [email protected].1

Format settings, CABAC : Yes

Format settings, ReFrames : 5 frames

Codec ID : V_MPEG4/ISO/AVC

Duration : 2h 12mn

Bit rate : 9 095 Kbps

Width : 1 920 pixels

Height : 800 pixels

Display aspect ratio : 2.40:1

Frame rate mode : Constant

Frame rate : 23.976 fps

Color space : YUV

Chroma subsampling : 4:2:0

Bit depth : 8 bits

Scan type : Progressive

Bits/(Pixel*Frame) : 0.247

Stream size : 8.44 GiB (86%)

Writing library : x264 core 148 r2705 3f5ed56

Encoding settings : cabac=1 / ref=5 / deblock=1:0:0 / analyse=0x3:0x133 / me=umh / subme=7 / psy=1 / psy_rd=1.00:0.00 / mixed_ref=1 / me_range=16 / chroma_me=1 / trellis=1 / 8x8dct=1 / cqm=0 / deadzone=21,11 / fast_pskip=0 / chroma_qp_offset=-2 / threads=25 / lookahead_threads=4 / sliced_threads=0 / nr=0 / decimate=1 / interlaced=0 / bluray_compat=0 / constrained_intra=0 / bframes=3 / b_pyramid=2 / b_adapt=1 / b_bias=0 / direct=1 / weightb=1 / open_gop=0 / weightp=2 / keyint=250 / keyint_min=23 / scenecut=40 / intra_refresh=0 / rc_lookahead=40 / rc=2pass / mbtree=1 / bitrate=9095 / ratetol=1.0 / qcomp=0.60 / qpmin=0 / qpmax=69 / qpstep=4 / cplxblur=20.0 / qblur=0.5 / ip_ratio=1.40 / aq=1:1.00

Language : English

Default : Yes

Forced : No

 

Audio

ID : 2

Format : DTS

Format/Info : Digital Theater Systems

Mode : 16

Format settings, Endianness : Big

Codec ID : A_DTS

Duration : 2h 12mn

Bit rate mode : Constant

Bit rate : 1 509 Kbps

Channel(s) : 6 channels

Channel positions : Front: L C R, Side: L R, LFE

Sampling rate : 48.0 KHz

Frame rate : 93.750 fps (512 spf)

Bit depth : 24 bits

Compression mode : Lossy

Stream size : 1.40 GiB (14%)

Language : English

Default : Yes

Forced : No

 

Text

ID : 3

Format : UTF-8

Codec ID : S_TEXT/UTF8

Codec ID/Info : UTF-8 Plain Text

Duration : 1h 4mn

Bit rate : 0 bps

Count of elements : 16

Stream size : 281 Bytes (0%)

Title : English-Forced

Language : English

Default : Yes

Forced : Yes

 

 

 

 

https://www.youtube.com/watch?v=q-RBA0xoaWU

 

 

74342477176012857023.png

Kρυφό περιεχόμενο

    Απάντηση σε αυτό το θέμα για να δείτε το κρυφό περιεχόμενο.

Share this post


Link to post
Δημοσίευση σε άλλες σελίδες

Δημιουργήστε ένα λογαριασμό ή συνδεθείτε για να σχολιάσετε

Χρειάζεται να είστε χρήστης για να μπορέσετε να σχολιάσετε

Δημιουργία λογαριασμού

Εγγραφείτε για ένα νέο λογαριασμό στην κοινότητά μας. Είναι εύκολο!

Εγγραφή νέου λογαριασμού

Συνδεθείτε

Έχετε ήδη λογαριασμό? Συνδεθείτε εδώ.

Συνδεθείτε τώρα