Πήγαινε στο περιεχόμενο

Recommended Posts

Frantic (1988) DVDrip

86436050803027069218.jpg

16688346323395815091.png
http://www.imdb.com/title/tt0095174/

Υπόθεση :
Η γυναίκα του γιατρού Richard Walker (Harrison Ford) εξαφανίζεται μυστηριωδώς στο Παρίσι. Στην προσπάθεια τού να την βρει, πρέπει να περάσει μέσα από ένα δαιδαλώδες δίκτυο γλωσσών, ντόπιων παρανόμων, διεφθαρμένων αστυνομικών, γραφειοκρατών και μιας μυστηριώδους σερβιτόρας (Emmanuelle Seigner) που ξέρει περισσότερα από όσα παραδέχεται...

73413966496127388838.png
Είδος Ταινίας:
Crime | Drama | Mystery
Σκηνοθέτης:
Roman Polanski
Σενάριο:
Roman Polanski, Gérard Brach
Ηθοποιοί:
Harrison Ford, Betty Buckley, Emmanuelle Seigner, Djiby Soumare, Dominique Virton, Gérard Klein, Stéphane D'Audeville
Format :
AVI
Ανάλυση :
544X416
Μέγεθος :
1,36 GB
Διάρκεια:
1:59:50
Γλώσσα:
Αγγλικά,
Yπότιτλοι:
Ελληνικοί Εξωτερικοί


General
Complete name : FRANTIC (1988)\Frantic.avi
Format : AVI
Format/Info : Audio Video Interleave
File size : 1.37 GiB
Duration : 1h 59mn
Overall bit rate : 1 636 Kbps
Writing application : VirtualDubMod 1.5.4.1 (build 2178/release)
Writing library : VirtualDubMod build 2178/release
Video #0
ID : 0
Format : MPEG-4 Visual
Format profile : [email protected]
Format settings, BVOP : Yes
Format settings, QPel : No
Format settings, GMC : No warppoints
Format settings, Matrix : Custom
Codec ID : XVID
Codec ID/Hint : XviD
Duration : 1h 59mn
Bit rate : 1 437 Kbps
Width : 544 pixels
Height : 416 pixels
Display aspect ratio : 4:3
Frame rate : 23.976 fps
Resolution : 24 bits
Colorimetry : 4:2:0
Scan type : Progressive
Bits/(Pixel*Frame) : 0.265
Stream size : 1.20 GiB (88%)
Writing library : XviD 1.2.0.dev47 (UTC 2006-11-01)
Audio #1
ID : 1
Format : AC-3
Format/Info : Audio Coding 3
Format profile : Dolby Digital
Codec ID : 2000
Duration : 1h 59mn
Bit rate mode : Constant
Bit rate : 192 Kbps
Channel(s) : 2 channels
Channel positions : L R
Sampling rate : 48.0 KHz
Video delay : 16ms
Stream size : 165 MiB (12%)
Alignment : Split accross interleaves
Interleave, duration : 96 ms (2.30 video frames)
Interleave, preload duration : 96 ms
Language : English



70809031615792506765.png


17685567689730781082.png
08932718816845231471.png

Kρυφό περιεχόμενο

    Απάντηση σε αυτό το θέμα για να δείτε το κρυφό περιεχόμενο.

Share this post


Link to post
Δημοσίευση σε άλλες σελίδες

Δημιουργήστε ένα λογαριασμό ή συνδεθείτε για να σχολιάσετε

Χρειάζεται να είστε χρήστης για να μπορέσετε να σχολιάσετε

Δημιουργία λογαριασμού

Εγγραφείτε για ένα νέο λογαριασμό στην κοινότητά μας. Είναι εύκολο!

Εγγραφή νέου λογαριασμού

Συνδεθείτε

Έχετε ήδη λογαριασμό? Συνδεθείτε εδώ.

Συνδεθείτε τώρα