Πήγαινε στο περιεχόμενο

Recommended Posts

Enter The Dragon (1973) DVDrip Xvid

79983147294676371736.jpg

16688346323395815091.png
http://www.imdb.com/title/tt0070034/

Υπόθεση :
Πρωταθλητές των πολεμικών τεχνών μαζεύονται σε ένα απομονωμένο νησί, για να πάρουν μέρος στο τουρνουά που διοργανώνει ο Χαν. Ανάμεσά τους κι ο Λι, ο οποίος έχει ως αποστολή να αποκαλύψει τις παράνομες δραστηριότητες του οικοδεσπότη.
Ο Μπρους Λη πρωταγωνιστεί σε μια από τις καλύτερες και γνωστότερες ταινίες πολεμικών τεχνών. Υποδυόμενος έναν μυστικό αστυνομικό που συμμετέχει σε ένα τουρνουά πολεμικών τεχνών με σκοπό να εξαρθρώσει μια συμμορία εμπόρων ναρκωτικών.

73413966496127388838.png
Είδος Ταινίας:
Action | Drama | Crime
Σκηνοθέτης:
Robert Clouse
Σενάριο:
Michael Allin
Ηθοποιοί:
Bruce Lee, John Saxon and Jim Kelly
Format :
AVI
Ανάλυση :
720X304
Μέγεθος :
2,18 GB
Διάρκεια:
1:42:33
Γλώσσα:
Αγγλικά
Yπότιτλοι:
Ελληνικοί Εξωτερικοί


General
Complete name : Enter The Dragon - Ο Κίτρινος Πράκτωρ του Χονγκ Κονγκ (1973) DVDrip Xvid\Enter The Dragon (1973).avi
Format : AVI
Format/Info : Audio Video Interleave
Format profile : OpenDML
File size : 2.18 GiB
Duration : 1h 42mn
Overall bit rate : 3 048 Kbps
Writing application : VirtualDubMod 1.5.10.2 (build 2540/release)
Writing library : VirtualDubMod build 2540/release
Video #0
ID : 0
Format : MPEG-4 Visual
Format profile : Advanced [email protected]
Format settings, BVOP : 4
Format settings, QPel : No
Format settings, GMC : No warppoints
Format settings, Matrix : Custom
Codec ID : XVID
Codec ID/Hint : XviD
Duration : 1h 42mn
Bit rate : 2 588 Kbps
Width : 720 pixels
Height : 304 pixels
Display aspect ratio : 2.35:1
Frame rate : 23.976 fps
Color space : YUV
Chroma subsampling : 4:2:0
Bit depth : 8 bits
Scan type : Progressive
Compression mode : Lossy
Bits/(Pixel*Frame) : 0.493
Stream size : 1.85 GiB (85%)
Writing library : XviD 1.2.1 (UTC 2008-12-04)
Audio #1
ID : 1
Format : AC-3
Format/Info : Audio Coding 3
Mode extension : CM (complete main)
Format settings, Endianness : Big
Codec ID : 2000
Duration : 1h 42mn
Bit rate mode : Constant
Bit rate : 448 Kbps
Channel(s) : 6 channels
Channel positions : Front: L C R, Side: L R, LFE
Sampling rate : 48.0 KHz
Bit depth : 16 bits
Compression mode : Lossy
Stream size : 329 MiB (15%)
Alignment : Split accross interleaves
Interleave, duration : 42 ms (1.00 video frame)
Interleave, preload duration : 500 ms



70809031615792506765.png


17685567689730781082.png
08932718816845231471.png

Kρυφό περιεχόμενο

    Απάντηση σε αυτό το θέμα για να δείτε το κρυφό περιεχόμενο.

Share this post


Link to post
Δημοσίευση σε άλλες σελίδες

Δημιουργήστε ένα λογαριασμό ή συνδεθείτε για να σχολιάσετε

Χρειάζεται να είστε χρήστης για να μπορέσετε να σχολιάσετε

Δημιουργία λογαριασμού

Εγγραφείτε για ένα νέο λογαριασμό στην κοινότητά μας. Είναι εύκολο!

Εγγραφή νέου λογαριασμού

Συνδεθείτε

Έχετε ήδη λογαριασμό? Συνδεθείτε εδώ.

Συνδεθείτε τώρα