Πήγαινε στο περιεχόμενο

Recommended Posts

Enough (2002) DVDRip XviD

KY3bBGp.jpg

dmP15rk.jpg

f1USP.png
http://www.imdb.com/title/tt0278435/

ΥΠΟΘΕΣΗ:
Όταν η Σλιμ, μια απλή σερβιτόρα, γνωρίζει και παντρεύεται έναν πλούσιο εργολάβο, όλα δείχνουν ότι η τύχη επιτέλους της χαμογελά. Μέχρι τη στιγμή που ο άνδρας της δείχνει το αληθινό του πρόσωπο: καταπιεστικός, κτητικός, άπιστος και βίαιος, την αναγκάζει να το σκάσει, μαζί με την μικρή τους κόρη, και να αναζητήσει μια καινούρια ζωή. Όμως ο άνδρας της συνεχίζει να την καταδιώκει και να την απειλεί... Αρκετά! Η Σλιμ θα πάρει την κατάσταση στα χέρια της...!

qpxob.png
Είδος Ταινίας:
Crime, Drama, Thriller
Σκηνοθεσία:
Michael Apted
Σενάριο:
Nicholas Kazan
Ηθοποιοί:
Jennifer Lopez, Billy Campbell, Tessa Allen
Επίσημη Πρεμιέρα:
24 May 2002 (USA)
Format:
AVI
Ανάλυση:
720X304
Μέγεθος:
1,37 GΒ
Διάρκεια:
01:55:15
Γλώσσα:
Αγγλικά
Υπότιτλοι:
Ελληνικοί Εξωτερικοί


General
Complete name : Enough (2002) DVDRip XviD.avi
Format : AVI
Format/Info : Audio Video Interleave
File size : 1.37 GiB
Duration : 1h 55mn
Overall bit rate mode : Variable
Overall bit rate : 1 700 Kbps
Writing application : VirtualDubMod 1.5.4.1 (build 2178/release)
Writing library : VirtualDubMod build 2178/release
Video #0
ID : 0
Format : MPEG-4 Visual
Format profile : Advanced [email protected]
Format settings, BVOP : No
Format settings, QPel : No
Format settings, GMC : No warppoints
Format settings, Matrix : Custom
Codec ID : XVID
Codec ID/Hint : XviD
Duration : 1h 55mn
Bit rate : 1 450 Kbps
Width : 720 pixels
Height : 304 pixels
Display aspect ratio : 2.35:1
Frame rate : 23.976 fps
Color space : YUV
Chroma subsampling : 4:2:0
Bit depth : 8 bits
Scan type : Progressive
Compression mode : Lossy
Bits/(Pixel*Frame) : 0.276
Stream size : 1.17 GiB (85%)
Writing library : XviD 1.2.1 (UTC 2008-12-04)
Audio #1
ID : 1
Format : MPEG Audio
Format version : Version 1
Format profile : Layer 3
Mode : Joint stereo
Mode extension : MS Stereo
Codec ID : 55
Codec ID/Hint : MP3
Duration : 1h 55mn
Bit rate mode : Variable
Bit rate : 237 Kbps
Channel(s) : 2 channels
Sampling rate : 48.0 KHz
Compression mode : Lossy
Stream size : 196 MiB (14%)
Alignment : Aligned on interleaves
Interleave, duration : 24 ms (0.58 video frame)
Interleave, preload duration : 77 ms
Writing library : LAME3.98r
Encoding settings : -m j -V 4 -q 2 -lowpass 19.7 --abr
Language : English



MaJL4.png


C4MOy.png
ZeQkoV8.png

Kρυφό περιεχόμενο

    Απάντηση σε αυτό το θέμα για να δείτε το κρυφό περιεχόμενο.

Share this post


Link to post
Δημοσίευση σε άλλες σελίδες

Δημιουργήστε ένα λογαριασμό ή συνδεθείτε για να σχολιάσετε

Χρειάζεται να είστε χρήστης για να μπορέσετε να σχολιάσετε

Δημιουργία λογαριασμού

Εγγραφείτε για ένα νέο λογαριασμό στην κοινότητά μας. Είναι εύκολο!

Εγγραφή νέου λογαριασμού

Συνδεθείτε

Έχετε ήδη λογαριασμό? Συνδεθείτε εδώ.

Συνδεθείτε τώρα