Πήγαινε στο περιεχόμενο
Gamato
Αναζήτηση σε...
  • More options...
Βρείτε αποτελέσματα που ...
Βρείτε αποτελέσματα σε...
  • GAMATO

    «GAMATO The Greek Community»

    Το GAMATO είναι ένα υπέροχο λειτουργικά σχεδιασμένο Website με πλούσιο και ενεργό υλικό κατεβάσματος ανά κατηγορία. Χρειάζεται μία απλή εγγραφή με ένα email σας και να είστε λίγο εξοικειωμένοι με τη διαδικασία κατεβάσματος μέσω filehosting services WORLDBYTEZ. See more...

  • WORLDBYTEZ

    Worldbytez είναι ένα υπέροχο λειτουργικά σχεδιασμένος filehosting με πλούσιο και ενεργό υλικό, Χρειάζεται μία απλή εγγραφή με ένα email σας και να είστε λίγο εξοικειωμένοι με τη διαδικασία κατεβάσματος μέσω filehosting services WORLDBYTEZ. See more...

  • GAMATO

    «GAMATO The Greek Community»

    Το GAMATO είναι ένα υπέροχο λειτουργικά σχεδιασμένο Website με πλούσιο και ενεργό υλικό κατεβάσματος ανά κατηγορία. Χρειάζεται μία απλή εγγραφή με ένα email σας και να είστε λίγο εξοικειωμένοι με τη διαδικασία κατεβάσματος μέσω filehosting services WORLDBYTEZ. See more...

  • WORLDBYTEZ

    Worldbytez είναι ένα υπέροχο λειτουργικά σχεδιασμένος filehosting με πλούσιο και ενεργό υλικό, Χρειάζεται μία απλή εγγραφή με ένα email σας και να είστε λίγο εξοικειωμένοι με τη διαδικασία κατεβάσματος μέσω filehosting services WORLDBYTEZ. See more...

Shootbox

ΠΩΣ ΚΑΤΕΒΑΖΟΥΜΕ VIDEO VIDEO
ΓΙΝΕ ΑΜΕΣΑ PREMIUMΚΑΙ ΚΑΤΕΒΑΣΤΕ ΑΡΧΕΙΑ ΑΜΕΣΑ ΜΕ ΤΟΝ IDM
ΑΠΑΓΟΡΕΥΕΤΑΙ ΟΠΟΙΑΔΗΠΟΤΕ ΒΟΗΘΕΙΑ ΣΤΟ CHAT ΥΠΑΡΧΕΙ SECTION ΒΟΗΘΕΙΑΣ

Load More
Δεν έχετε άδεια για συνομιλία παρακαλούμε εγγραφείτε.

NEWS

Tα θεματα του φορουμ εχουν λινκ αποκλειστικα στο Worldbytez

Eκμεταλλευτειτε τις νεες χαμηλες τιμες για premium συνδρομες για να εχετε απεριοριστο downloading


Recommended Posts

Driven (2001) DVDrip Xvid

12807691971963121683.jpg

f1USP.png
http://www.imdb.com/title/tt0132245/

Υπόθεση :
Ο Jimmy Bly είναι ένας ταλαντούχος νεαρός οδηγός αγώνων (εσκεμμένα αποφεύγουμε τον όρο Formula 1). Οι πρόσφατές του επιτυχίες τον έχουν φέρει στο προσκήνιο και η πίεση των μέσων ενημέρωσης και του αδελφού του που τον μανατζάρει είναι αφόρητη. Ο βασικός του αντίπαλος είναι ο Γερμανός Beau Brandenburg, ο οποίος αρχίζει να ανακάμπτει αγωνιστικά όταν χωρίζει από τη Sophia. Ο αρχηγός της ομάδας του Bly, είναι ο Carl Henry ο οποίος ανησυχεί για την πορεία του νεαρού. Για να τον βοηθήσει αποφασίζει να καλέσει σαν δεύτερο οδηγό της ομάδας και μέντορα του νεαρού, τον παλιό του φίλο και συνεργάτη Joe Tanto. Ο άνθρωπος αυτός ήταν ο κορυφαίος στο παρελθόν, αλλά ένα μεγάλο ατύχημα τον έβγαλε από τις πίστες. Ο Joe Tanto θα πρέπει να καταφέρει να προσαρμοστεί γρήγορα και να καταφέρει να συνεργαστεί με την ομάδα, την πρώην γυναίκα του και μια δημοσιογράφο που ερευνά το χώρο των αγώνων.

Σχόλιο :
Πως είπατε; Το Driven είναι ταινία για τη Formula 1; Ψέματα. Δεν πρόκειται για Formula 1 αλλά για ένα είδος αγώνων που μοιάζουν. Αυτό συνέβη γιατί οι παραγωγοί δεν εξασφάλισαν την απαραίτητη έγκριση. Δεν θα μπούμε στο κόπο να αναπτύξουμε τις αδυναμίες του σεναρίου. Θα μας πάρει πολλές γραμμές κειμένου και να φανταστείτε ότι δεν ξέρουμε τόσο καλά το αντικείμενο. Το μόνο που αξίζει από την ταινία είναι οι σκηνές μέσα από τα μονοθέσια που κόβουν την ανάσα και τα απίστευτα ατυχήματα - που όμως έχουν δημιουργηθεί από υπολογιστές. Αλλά και πάλι τέτοια βλέπουμε και στη μικρή μας οθόνη και περισσότερο αληθοφανή!

73413966496127388838.png
Είδος Ταινίας:
Action | Drama | Sport
Σκηνοθέτης:
Renny Harlin
Σενάριο:
Jan Skrentny (story), Neal Tabachnick (story)
Ηθοποιοί:
Sylvester Stallone, Kip Pardue and Til Schweiger
Format :
AVI
Ανάλυση :
640X272
Μέγεθος :
700 MB
Διάρκεια:
1:49:14
Γλώσσα:
Αγγλικά
Yπότιτλοι:
Ελληνικοί Εξωτερικοί


General
Complete name : Driven (2001)\Driven (2001)\Driven (2001).avi
Format : AVI
Format/Info : Audio Video Interleave
File size : 701 MiB
Duration : 1h 49mn
Overall bit rate : 897 Kbps
Writing application : VirtualDubMod 1.5.10.2 (build 2540/release)
Writing library : VirtualDubMod build 2540/release
Video #0
ID : 0
Format : MPEG-4 Visual
Format settings, BVOP : Yes
Format settings, QPel : No
Format settings, GMC : No warppoints
Format settings, Matrix : Default (H.263)
Codec ID : DX50
Codec ID/Hint : DivX 5
Duration : 1h 49mn
Bit rate : 775 Kbps
Width : 640 pixels
Height : 272 pixels
Display aspect ratio : 2.35:1
Frame rate : 24.023 fps
Color space : YUV
Chroma subsampling : 4:2:0
Bit depth : 8 bits
Scan type : Progressive
Compression mode : Lossy
Bits/(Pixel*Frame) : 0.185
Stream size : 606 MiB (86%)
Writing library : DivX 5.0.2 (UTC 2002-05-16)
Audio #1
ID : 1
Format : MPEG Audio
Format version : Version 1
Format profile : Layer 3
Mode : Joint stereo
Mode extension : MS Stereo
Codec ID : 55
Codec ID/Hint : MP3
Duration : 1h 49mn
Bit rate mode : Constant
Bit rate : 112 Kbps
Channel(s) : 2 channels
Sampling rate : 44.1 KHz
Compression mode : Lossy
Stream size : 87.5 MiB (12%)
Alignment : Split accross interleaves
Interleave, duration : 42 ms (1.00 video frame)
Interleave, preload duration : 500 ms



MaJL4.png


C4MOy.png
ZeQkoV8.png

Kρυφό περιεχόμενο

    Απάντηση σε αυτό το θέμα για να δείτε το κρυφό περιεχόμενο.

Share this post


Link to post
Δημοσίευση σε άλλες σελίδες

Δημιουργήστε ένα λογαριασμό ή συνδεθείτε για να σχολιάσετε

Χρειάζεται να είστε χρήστης για να μπορέσετε να σχολιάσετε

Δημιουργία λογαριασμού

Εγγραφείτε για ένα νέο λογαριασμό στην κοινότητά μας. Είναι εύκολο!

Εγγραφή νέου λογαριασμού

Συνδεθείτε

Έχετε ήδη λογαριασμό? Συνδεθείτε εδώ.

Συνδεθείτε τώρα
    • 1 Posts
    • 7 Views
    • 1 Posts
    • 92 Views
    • 1 Posts
    • 131 Views

×