Πήγαινε στο περιεχόμενο

Recommended Posts

Cobra (1986) DVDrip

45283989876283153676.jpg

16688346323395815091.png
http://www.imdb.com/title/tt0090859/

Υπόθεση :
Αεροπορικό Ray-ban γυαλί, οδοντογλυφίδα στο στόμα και αχώριστος σύντροφος το Colt 45άρι από την μία και το ημιαυτόματο Jati-Matic για φινάλε. Έτσι ορίζεται η φιγούρα του περιθωριακού και σκληροτράχηλου αστυνομικού Marion Cobretti (η απλά “Cobra” για τους φίλους), σε μια επαρχιακή πόλη στην Αμερική της δεκαετίας του ’80. Σύντομα έρχεται αντιμέτωπος με μια σπείρα οργανωμένου εγκλήματος με την κωδική ονομασία “New Order” οι οποίοι δολοφονούν κατά συρροή άνευ λόγου και αιτίας αθώους και ανυπεράσπιστους πολίτες πιστεύοντας έτσι πως ο κόσμος ανήκει μόνο στους δυνατούς και τους ισχυρούς. Ένα φωτομοντέλο, η Ingrid (Brigitte Nielsen) όμως γίνεται αυτόπτης μάρτυρας στην δολοφονία μιας κοπέλας όταν ένα μέλος της σπείρας με αποκρουστικό βλέμμα συνειδητοποιεί ότι η Ingrid είδε το φονικό και αμέσως γίνεται ο επόμενος τους στόχος και έμμονη ιδέα του αρχηγού της σπείρας, του “Night Slasher”. Η νεαρή κοπέλα ζητά την βοήθεια της αστυνομίας και αυτομάτως ο Cobretti γίνεται ο προσωπικός της φρουρός αναλαμβάνοντας παράλληλα την εξάρθρωση και την σύλληψη της σπείρας αυτής. Φυγαδεύονται από την πόλη και επιδίδονται σε ένα ανελέητο ανθρωποκυνηγητό όπου πέφτει μπόλικο πιστολίδι και εκτυλίσσονται πολλές σκηνές δράσης.


73413966496127388838.png
Είδος Ταινίας:
Action | Crime | Thriller
Σκηνοθέτης:
George P. Cosmatos
Σενάριο:
Gosling (novel),Sylvester Stallone (screenplay)
Ηθοποιοί:
Sylvester Stallone, Brigitte Nielsen, Reni Santoni
Format :
AVI
Ανάλυση :
528X288
Μέγεθος :
679 MB
Διάρκεια:
1:23:27
Γλώσσα:
Αγγλικά
Yπότιτλοι:
Ελληνικοί Εξωτερικοί


General
Complete name : COBRA (1986)\Cobra.avi
Format : DivX
Format/Info : Hack of AVI
File size : 680 MiB
Duration : 1h 23mn
Overall bit rate : 1 138 Kbps
Video #0
ID : 0
Format : MPEG-4 Visual
Format settings, BVOP : 1
Format settings, QPel : No
Format settings, GMC : No warppoints
Format settings, Matrix : Default (H.263)
Muxing mode : Packed bitstream
Codec ID : DX50
Codec ID/Hint : DivX 5
Duration : 1h 23mn
Bit rate : 1 001 Kbps
Width : 528 pixels
Height : 288 pixels
Display aspect ratio : 1.85:1
Frame rate : 25.000 fps
Color space : YUV
Chroma subsampling : 4:2:0
Bit depth : 8 bits
Scan type : Progressive
Compression mode : Lossy
Bits/(Pixel*Frame) : 0.263
Stream size : 597 MiB (88%)
Title : Video
Writing library : DivX 6.2.5 (UTC 2006-07)
Audio #1
ID : 1
Format : MPEG Audio
Format version : Version 1
Format profile : Layer 3
Mode : Dual mono
Codec ID : 55
Codec ID/Hint : MP3
Duration : 1h 23mn
Bit rate mode : Constant
Bit rate : 128 Kbps
Channel(s) : 2 channels
Sampling rate : 44.1 KHz
Compression mode : Lossy
Stream size : 76.4 MiB (11%)
Alignment : Split accross interleaves
Interleave, duration : 40 ms (1.00 video frame)
Interleave, preload duration : 500 ms
Title : Audio - en



70809031615792506765.png


17685567689730781082.png
08932718816845231471.png

Kρυφό περιεχόμενο

    Απάντηση σε αυτό το θέμα για να δείτε το κρυφό περιεχόμενο.

Share this post


Link to post
Δημοσίευση σε άλλες σελίδες

Δημιουργήστε ένα λογαριασμό ή συνδεθείτε για να σχολιάσετε

Χρειάζεται να είστε χρήστης για να μπορέσετε να σχολιάσετε

Δημιουργία λογαριασμού

Εγγραφείτε για ένα νέο λογαριασμό στην κοινότητά μας. Είναι εύκολο!

Εγγραφή νέου λογαριασμού

Συνδεθείτε

Έχετε ήδη λογαριασμό? Συνδεθείτε εδώ.

Συνδεθείτε τώρα