Πήγαινε στο περιεχόμενο
Gamato
Αναζήτηση σε...
  • More options...
Βρείτε αποτελέσματα που ...
Βρείτε αποτελέσματα σε...
  • GAMATO

    «GAMATO The Greek Community»

    Το GAMATO είναι ένα υπέροχο λειτουργικά σχεδιασμένο Website με πλούσιο και ενεργό υλικό κατεβάσματος ανά κατηγορία. Χρειάζεται μία απλή εγγραφή με ένα email σας και να είστε λίγο εξοικειωμένοι με τη διαδικασία κατεβάσματος μέσω filehosting services WORLDBYTEZ. See more...

  • WORLDBYTEZ

    Worldbytez είναι ένα υπέροχο λειτουργικά σχεδιασμένος filehosting με πλούσιο και ενεργό υλικό, Χρειάζεται μία απλή εγγραφή με ένα email σας και να είστε λίγο εξοικειωμένοι με τη διαδικασία κατεβάσματος μέσω filehosting services WORLDBYTEZ. See more...

  • GAMATO

    «GAMATO The Greek Community»

    Το GAMATO είναι ένα υπέροχο λειτουργικά σχεδιασμένο Website με πλούσιο και ενεργό υλικό κατεβάσματος ανά κατηγορία. Χρειάζεται μία απλή εγγραφή με ένα email σας και να είστε λίγο εξοικειωμένοι με τη διαδικασία κατεβάσματος μέσω filehosting services WORLDBYTEZ. See more...

  • WORLDBYTEZ

    Worldbytez είναι ένα υπέροχο λειτουργικά σχεδιασμένος filehosting με πλούσιο και ενεργό υλικό, Χρειάζεται μία απλή εγγραφή με ένα email σας και να είστε λίγο εξοικειωμένοι με τη διαδικασία κατεβάσματος μέσω filehosting services WORLDBYTEZ. See more...

Shootbox

ΠΩΣ ΚΑΤΕΒΑΖΟΥΜΕ VIDEO VIDEO
ΓΙΝΕ ΑΜΕΣΑ PREMIUMΚΑΙ ΚΑΤΕΒΑΣΤΕ ΑΡΧΕΙΑ ΑΜΕΣΑ ΜΕ ΤΟΝ IDM
ΑΠΑΓΟΡΕΥΕΤΑΙ ΟΠΟΙΑΔΗΠΟΤΕ ΒΟΗΘΕΙΑ ΣΤΟ CHAT ΥΠΑΡΧΕΙ SECTION ΒΟΗΘΕΙΑΣ

Load More
Δεν έχετε άδεια για συνομιλία παρακαλούμε εγγραφείτε.

NEWS

Tα θεματα του φορουμ εχουν λινκ αποκλειστικα στο Worldbytez

Eκμεταλλευτειτε τις νεες χαμηλες τιμες για premium συνδρομες για να εχετε απεριοριστο downloading


Recommended Posts

Blind Fury (1989) DVDrip Xvid

34768165357331788599.jpg

16688346323395815091.png
http://www.imdb.com/title/tt0096945/

Υπόθεση :
Ένας άντρας χάνει το φως του στον πόλεμο του Βιετνάμ. Τα επόμενα χρόνια εκπαιδεύεται στην τέχνη του σπαθιού, αναπτύσσοντας τις υπόλοιπες αισθήσεις του. Όταν κακοποιοί σκοτώνουν τη σύζυγο ενός φίλου του από το στρατό, ο Νικ αναλαμβάνει να φυγαδεύσει και να κρύψει το γιο της.
Μια καταιγιστική περιπέτεια πολεμικών τεχνών με τον Ρούτγκερ Χάουερ στο ρόλο ενός τυφλού βετεράνου του Βιετνάμ που μαθαίνει ξιφασκία και καταπολεμά το έγκλημα!

73413966496127388838.png
Είδος Ταινίας:
Action
Σκηνοθέτης:
Phillip Noyce
Σενάριο:
Ryôzô Kasahara (earlier screenplay), Charles Robert Carner (screen story)
Ηθοποιοί:
Rutger Hauer, Terry O'Quinn and Brandon Call
Format :
AVI
Ανάλυση :
720X404
Μέγεθος :
1,26 GB
Διάρκεια:
1:26:23
Γλώσσα:
English
Yπότιτλοι:
Ελληνικοί Εξωτερικοί & Ενσωματωμένοι


General
Complete name : BLIND FURY - ΤΥΦΛΟΣ ΣΑΜΟΥΡΑΪ (1989)\Blind Fury (1989).avi
Format : AVI
Format/Info : Audio Video Interleave
File size : 1.27 GiB
Duration : 1h 26mn
Overall bit rate : 2 099 Kbps
Movie name : DVD_VIDEO
Writing application : MEncoder dev-SVN-r26492-4.2.3
Writing library : MPlayer
Video #0
ID : 0
Format : MPEG-4 Visual
Format profile : [email protected]
Format settings, BVOP : No
Format settings, QPel : No
Format settings, GMC : No warppoints
Format settings, Matrix : Default (H.263)
Codec ID : DIVX
Codec ID/Info : Project Mayo
Codec ID/Hint : DivX 4
Duration : 1h 26mn
Bit rate : 1 957 Kbps
Width : 720 pixels
Height : 404 pixels
Display aspect ratio : 16:9
Frame rate : 29.970 fps
Color space : YUV
Chroma subsampling : 4:2:0
Bit depth : 8 bits
Scan type : Progressive
Compression mode : Lossy
Bits/(Pixel*Frame) : 0.224
Stream size : 1.18 GiB (93%)
Writing library : Lavc51.55.0
Audio #1
ID : 1
Format : MPEG Audio
Format version : Version 1
Format profile : Layer 3
Mode : Joint stereo
Mode extension : MS Stereo
Codec ID : 55
Codec ID/Hint : MP3
Duration : 1h 26mn
Bit rate mode : Constant
Bit rate : 128 Kbps
Channel(s) : 2 channels
Sampling rate : 48.0 KHz
Compression mode : Lossy
Stream size : 79.1 MiB (6%)
Alignment : Aligned on interleaves
Interleave, duration : 24 ms (0.72 video frame)
Interleave, preload duration : 816 ms



70809031615792506765.png
http://www.youtube.com/watch?v=ZKm0YeKAq9E


17685567689730781082.png
08932718816845231471.png

Kρυφό περιεχόμενο

    Απάντηση σε αυτό το θέμα για να δείτε το κρυφό περιεχόμενο.

Share this post


Link to post
Δημοσίευση σε άλλες σελίδες

Δημιουργήστε ένα λογαριασμό ή συνδεθείτε για να σχολιάσετε

Χρειάζεται να είστε χρήστης για να μπορέσετε να σχολιάσετε

Δημιουργία λογαριασμού

Εγγραφείτε για ένα νέο λογαριασμό στην κοινότητά μας. Είναι εύκολο!

Εγγραφή νέου λογαριασμού

Συνδεθείτε

Έχετε ήδη λογαριασμό? Συνδεθείτε εδώ.

Συνδεθείτε τώρα
    • 1 Posts
    • 114 Views
    • Grust
    • Grust
    • 1 Posts
    • 279 Views
    • 1 Posts
    • 151 Views

×