Πήγαινε στο περιεχόμενο
admin

TWO NIGHT STAND (2014) LIMITED 720p BluRay X264-AMIABLE

Recommended Posts

TWO NIGHT STAND (2014)

Ξεχωριστοί Ελληνικοί Υπότιτλοι

 

24268309328636820152.jpg

 

65100146565876440354.jpeg

 

 

Σκηνοθεσία: Max Nichols

Σενάριο: Max Nichols

Ηθοποιοί: Miles Teller, Analeigh Tipton, Jessica Szohr

Είδος: Comedy | Romance

Πρεμιέρα: 26 September 2014 (USA)

Yπότιτλοι: Eλληνικοί Ξεχωριστοί

Μετάφραση: vagos13nos

 

 

 

http://www.imdb.com/title/tt2140619/

Ο Άλεκ και η Μέγκαν είναι δύο 20 και άνω ξένοι που ακολουθούν τη λάθος συμβουλή για one-night-stand και βρίσκονται απομονωμένοι από χιονοθύελλα σε ένα διαμέρισμα του Μπρούκλιν. Αιχμάλωτοι κυριολεκτικά από το χιόνι σε ένα τόσο μικρό δωμάτιο, καταλήγουν να γνωριστούν πολύ καλύτερα από ό,τι θα επέτρεπε μια παρόμοια συγκυρία.

 

 

 

Format : Matroska

Format version : Version 2

File size : 4.36 GiB

Duration : 1h 25mn

Overall bit rate : 7 272 Kbps

Writing application : mkvmerge v6.6.0 ('The Edge Of The In Between') built on Dec 1 2013 17:55:00

Writing library : libebml v1.3.0 + libmatroska v1.4.1

 

Video

ID : 1

Format : AVC

Format/Info : Advanced Video Codec

Format profile : [email protected]

Format settings, CABAC : Yes

Format settings, ReFrames : 5 frames

Codec ID : V_MPEG4/ISO/AVC

Duration : 1h 25mn

Bit rate : 5 770 Kbps

Width : 1 280 pixels

Height : 536 pixels

Display aspect ratio : 2.40:1

Frame rate : 23.976 fps

Color space : YUV

Chroma subsampling : 4:2:0

Bit depth : 8 bits

Scan type : Progressive

Bits/(Pixel*Frame) : 0.351

Stream size : 3.37 GiB (77%)

Writing library : x264 core 144 r2525 40bb568

Encoding settings : cabac=1 / ref=5 / deblock=1:-3:-3 / analyse=0x3:0x113 / me=umh / subme=8 / psy=1 / psy_rd=1.00:0.00 / mixed_ref=1 / me_range=16 / chroma_me=1 / trellis=1 / 8x8dct=1 / cqm=0 / deadzone=21,11 / fast_pskip=1 / chroma_qp_offset=-2 / threads=12 / lookahead_threads=2 / sliced_threads=0 / nr=0 / decimate=1 / interlaced=0 / bluray_compat=0 / constrained_intra=0 / bframes=3 / b_pyramid=2 / b_adapt=2 / b_bias=0 / direct=3 / weightb=1 / open_gop=0 / weightp=2 / keyint=240 / keyint_min=24 / scenecut=40 / intra_refresh=0 / rc_lookahead=50 / rc=2pass / mbtree=1 / bitrate=5770 / ratetol=1.0 / qcomp=0.60 / qpmin=0 / qpmax=69 / qpstep=4 / cplxblur=20.0 / qblur=0.5 / ip_ratio=1.40 / aq=1:1.00

Language : English

Default : Yes

Forced : No

 

Audio

ID : 2

Format : DTS

Format/Info : Digital Theater Systems

Codec ID : A_DTS

Duration : 1h 25mn

Bit rate mode : Constant

Bit rate : 1 510 Kbps

Channel(s) : 6 channels

Channel positions : Front: L C R, Side: L R, LFE

Sampling rate : 48.0 KHz

Bit depth : 24 bits

Compression mode : Lossy

Stream size : 928 MiB (21%)

Language : English

Default : Yes

Forced : No

 

 

 

https://www.youtube.com/watch?v=VcSosCe0B-A

 

 

 

 

WORLDBYTEZ

Kρυφό περιεχόμενο

    Απάντηση σε αυτό το θέμα για να δείτε το κρυφό περιεχόμενο.

Share this post


Link to post
Δημοσίευση σε άλλες σελίδες

Δημιουργήστε ένα λογαριασμό ή συνδεθείτε για να σχολιάσετε

Χρειάζεται να είστε χρήστης για να μπορέσετε να σχολιάσετε

Δημιουργία λογαριασμού

Εγγραφείτε για ένα νέο λογαριασμό στην κοινότητά μας. Είναι εύκολο!

Εγγραφή νέου λογαριασμού

Συνδεθείτε

Έχετε ήδη λογαριασμό? Συνδεθείτε εδώ.

Συνδεθείτε τώρα