Πήγαινε στο περιεχόμενο
Gamato
Αναζήτηση σε...
  • More options...
Βρείτε αποτελέσματα που ...
Βρείτε αποτελέσματα σε...
  • GAMATO

    «GAMATO The Greek Community»

    Το GAMATO είναι ένα υπέροχο λειτουργικά σχεδιασμένο Website με πλούσιο και ενεργό υλικό κατεβάσματος ανά κατηγορία. Χρειάζεται μία απλή εγγραφή με ένα email σας και να είστε λίγο εξοικειωμένοι με τη διαδικασία κατεβάσματος μέσω filehosting services WORLDBYTEZ. See more...

  • WORLDBYTEZ

    Worldbytez είναι ένα υπέροχο λειτουργικά σχεδιασμένος filehosting με πλούσιο και ενεργό υλικό, Χρειάζεται μία απλή εγγραφή με ένα email σας και να είστε λίγο εξοικειωμένοι με τη διαδικασία κατεβάσματος μέσω filehosting services WORLDBYTEZ. See more...

  • GAMATO

    «GAMATO The Greek Community»

    Το GAMATO είναι ένα υπέροχο λειτουργικά σχεδιασμένο Website με πλούσιο και ενεργό υλικό κατεβάσματος ανά κατηγορία. Χρειάζεται μία απλή εγγραφή με ένα email σας και να είστε λίγο εξοικειωμένοι με τη διαδικασία κατεβάσματος μέσω filehosting services WORLDBYTEZ. See more...

  • WORLDBYTEZ

    Worldbytez είναι ένα υπέροχο λειτουργικά σχεδιασμένος filehosting με πλούσιο και ενεργό υλικό, Χρειάζεται μία απλή εγγραφή με ένα email σας και να είστε λίγο εξοικειωμένοι με τη διαδικασία κατεβάσματος μέσω filehosting services WORLDBYTEZ. See more...

Shootbox

ΠΩΣ ΚΑΤΕΒΑΖΟΥΜΕ VIDEO VIDEO
ΓΙΝΕ ΑΜΕΣΑ PREMIUMΚΑΙ ΚΑΤΕΒΑΣΤΕ ΑΡΧΕΙΑ ΑΜΕΣΑ ΜΕ ΤΟΝ IDM
ΑΠΑΓΟΡΕΥΕΤΑΙ ΟΠΟΙΑΔΗΠΟΤΕ ΒΟΗΘΕΙΑ ΣΤΟ CHAT ΥΠΑΡΧΕΙ SECTION ΒΟΗΘΕΙΑΣ

Load More
Δεν έχετε άδεια για συνομιλία παρακαλούμε εγγραφείτε.

NEWS

Tα θεματα του φορουμ εχουν λινκ αποκλειστικα στο Worldbytez

Eκμεταλλευτειτε τις νεες χαμηλες τιμες για premium συνδρομες για να εχετε απεριοριστο downloading

Lusion

A BIGGER SPLASH (2015) 720p BluRay X264-AMIABLE


Recommended Posts

A BIGGER SPLASH (2015)

Ξεχωριστοί Ελληνικοί Υπότιτλοι

 

60443029792475712702.jpg

 

37787036040719305905.jpg

 

 

Σκηνοθεσία: Luca Guadagnino

Σενάριο: David Kajganich (screenplay), Alain Page (story)

Ηθοποιοί: Dakota Johnson, Ralph Fiennes, Tilda Swinton, Matthias Schoenaerts

Είδος: Crime, Drama, Mystery

Πρεμιέρα: 4 August 2016 (Greece)

Yπότιτλοι: Eλληνικοί Ξεχωριστοί

Μετάφραση: Calamity Jane

 

 

Kρυφό περιεχόμενο

    Απάντηση σε αυτό το θέμα για να δείτε το κρυφό περιεχόμενο.

 

Μια διάσημη ροκ σταρ, η Μαριάν, παραθερίζει μαζί με τον αρραβωνιαστικό της, τον σκηνοθέτη Πολ, κάτω από τον ειδυλλιακό ήλιο της απόμερης ιταλικής νήσου Παντελερία. Η ηρεμία τους διαταράσσεται από την απρόσμενη άφιξη ενός παλιού φίλου και της κόρης του, ο Χάρι και η Πενέλοπι, κάτι που θα εκτοξεύσει έναν ανεμοστρόβιλο ζήλειας και πάθους, μια και ο Χάρι είναι κρυφός εραστής της Μαριάν, μα ακόμα και κινδύνου.

 

 

 

Format : Matroska

Format version : Version 4 / Version 2

File size : 5.47 GiB

Duration : 2h 4mn

Overall bit rate : 6 295 Kbps

Encoded date : UTC 2010-02-22 21:41:29

Writing application : no_variable_data

Writing library : no_variable_data

 

Video

ID : 1

Format : AVC

Format/Info : Advanced Video Codec

Format profile : [email protected].1

Format settings, CABAC : Yes

Format settings, ReFrames : 5 frames

Codec ID : V_MPEG4/ISO/AVC

Duration : 2h 4mn

Bit rate : 4 783 Kbps

Width : 1 280 pixels

Height : 688 pixels

Display aspect ratio : 1.85:1

Frame rate mode : Constant

Frame rate : 24.000 fps

Color space : YUV

Chroma subsampling : 4:2:0

Bit depth : 8 bits

Scan type : Progressive

Bits/(Pixel*Frame) : 0.226

Stream size : 4.05 GiB (74%)

Writing library : x264 core 148 r2692 64f4e24

Encoding settings : cabac=1 / ref=5 / deblock=1:-3:-3 / analyse=0x3:0x113 / me=umh / subme=8 / psy=1 / psy_rd=1.00:0.00 / mixed_ref=1 / me_range=16 / chroma_me=1 / trellis=1 / 8x8dct=1 / cqm=0 / deadzone=21,11 / fast_pskip=1 / chroma_qp_offset=-2 / threads=21 / lookahead_threads=3 / sliced_threads=0 / nr=0 / decimate=1 / interlaced=0 / bluray_compat=0 / constrained_intra=0 / bframes=3 / b_pyramid=2 / b_adapt=2 / b_bias=0 / direct=3 / weightb=1 / open_gop=0 / weightp=2 / keyint=240 / keyint_min=24 / scenecut=40 / intra_refresh=0 / rc_lookahead=50 / rc=2pass / mbtree=1 / bitrate=4783 / ratetol=1.0 / qcomp=0.60 / qpmin=0 / qpmax=69 / qpstep=4 / cplxblur=20.0 / qblur=0.5 / ip_ratio=1.40 / aq=3:0.80

Default : Yes

Forced : No

Statistics Tags Issue : no_variable_data 1970-01-01 00:00:00 / no_variable_data 2010-02-22 21:41:29

FromStats_BitRate : 4783418

FromStats_Duration : 02:04:18.042000000

FromStats_FrameCount : 178993

FromStats_StreamSize : 4459367364

 

Audio

ID : 2

Format : DTS

Format/Info : Digital Theater Systems

Mode : 16

Format settings, Endianness : Big

Codec ID : A_DTS

Duration : 2h 4mn

Bit rate mode : Constant

Bit rate : 1 509 Kbps

Channel(s) : 6 channels

Channel positions : Front: L C R, Side: L R, LFE

Sampling rate : 48.0 KHz

Frame rate : 93.750 fps (512 spf)

Bit depth : 24 bits

Compression mode : Lossy

Stream size : 1.31 GiB (24%)

Language : English

Default : Yes

Forced : No

 

 

 

https://www.youtube.com/watch?v=SRQioAYem3o

 

 

 

 

WORLDBYTEZ

Kρυφό περιεχόμενο

    Απάντηση σε αυτό το θέμα για να δείτε το κρυφό περιεχόμενο.

Share this post


Link to post
Δημοσίευση σε άλλες σελίδες

Δημιουργήστε ένα λογαριασμό ή συνδεθείτε για να σχολιάσετε

Χρειάζεται να είστε χρήστης για να μπορέσετε να σχολιάσετε

Δημιουργία λογαριασμού

Εγγραφείτε για ένα νέο λογαριασμό στην κοινότητά μας. Είναι εύκολο!

Εγγραφή νέου λογαριασμού

Συνδεθείτε

Έχετε ήδη λογαριασμό? Συνδεθείτε εδώ.

Συνδεθείτε τώρα

×