Πήγαινε στο περιεχόμενο
Lusion

LIFE (2017) 1080p BluRay x264-Replica

Recommended Posts

40771330826066793966.jpg

 

71473082614936989491.jpeg

 

 

 

Είδος: Horror, Sci-Fi, Thriller

Σκηνοθεσία: Daniel Espinosa

Σενάριο: Rhett Reese, Paul Wernick

Ηθοποιοί: Jake Gyllenhaal, Rebecca Ferguson, Ryan Reynolds

Πρεμιέρα : 20 April 2017 (Greece)

Yπότιτλοι: Ελληνικοί Ξεχωριστοί

Μετάφραση: ShitHigh&Watch

 

 

 

 

 

 

 

http://www.imdb.com/title/tt5442430/

 

Format : Matroska

Format version : Version 4 / Version 2

File size : 7.65 GiB

Duration : 1h 43mn

Overall bit rate : 10.5 Mbps

Encoded date : UTC 2017-06-08 12:12:40

Writing application : mkvmerge v8.5.2 ('DiAMOND') 64bit

Writing library : libebml v1.3.3 + libmatroska v1.4.4

 

Video

ID : 1

Format : AVC

Format/Info : Advanced Video Codec

Format profile : [email protected]

Format settings, CABAC : Yes

Format settings, ReFrames : 5 frames

Codec ID : V_MPEG4/ISO/AVC

Duration : 1h 43mn

Bit rate : 9 020 Kbps

Width : 1 920 pixels

Height : 808 pixels

Display aspect ratio : 2.40:1

Frame rate mode : Constant

Frame rate : 23.976 fps

Color space : YUV

Chroma subsampling : 4:2:0

Bit depth : 8 bits

Scan type : Progressive

Bits/(Pixel*Frame) : 0.243

Stream size : 6.40 GiB (84%)

Writing library : x264 core 150 r2833 df79067

Encoding settings : cabac=1 / ref=5 / deblock=1:0:0 / analyse=0x3:0x113 / me=umh / subme=8 / psy=1 / psy_rd=1.00:0.00 / mixed_ref=1 / me_range=16 / chroma_me=1 / trellis=1 / 8x8dct=1 / cqm=0 / deadzone=21,11 / fast_pskip=1 / chroma_qp_offset=-2 / threads=24 / lookahead_threads=4 / sliced_threads=0 / nr=0 / decimate=1 / interlaced=0 / bluray_compat=0 / constrained_intra=0 / bframes=3 / b_pyramid=2 / b_adapt=1 / b_bias=0 / direct=3 / weightb=1 / open_gop=0 / weightp=2 / keyint=240 / keyint_min=24 / scenecut=40 / intra_refresh=0 / rc_lookahead=50 / rc=2pass / mbtree=1 / bitrate=9020 / ratetol=1.0 / qcomp=0.60 / qpmin=0 / qpmax=69 / qpstep=4 / cplxblur=20.0 / qblur=0.5 / ip_ratio=1.40 / aq=1:1.00

Language : English

Default : Yes

Forced : No

 

Audio

ID : 2

Format : DTS

Format/Info : Digital Theater Systems

Mode : 16

Format settings, Endianness : Big

Codec ID : A_DTS

Duration : 1h 43mn

Bit rate mode : Constant

Bit rate : 1 509 Kbps

Channel(s) : 6 channels

Channel positions : Front: L C R, Side: L R, LFE

Sampling rate : 48.0 KHz

Bit depth : 24 bits

Compression mode : Lossy

Stream size : 1.10 GiB (14%)

Language : English

Default : Yes

Forced : No

 

 

 

 

https://www.youtube.com/watch?v=wxQvGTWRtA8

 

 

 

74342477176012857023.png

Kρυφό περιεχόμενο

    Απάντηση σε αυτό το θέμα για να δείτε το κρυφό περιεχόμενο.

Share this post


Link to post
Δημοσίευση σε άλλες σελίδες

Δημιουργήστε ένα λογαριασμό ή συνδεθείτε για να σχολιάσετε

Χρειάζεται να είστε χρήστης για να μπορέσετε να σχολιάσετε

Δημιουργία λογαριασμού

Εγγραφείτε για ένα νέο λογαριασμό στην κοινότητά μας. Είναι εύκολο!

Εγγραφή νέου λογαριασμού

Συνδεθείτε

Έχετε ήδη λογαριασμό? Συνδεθείτε εδώ.

Συνδεθείτε τώρα
    • 1 Posts
    • 19 Views
    • 1 Posts
    • 21 Views
    • 1 Posts
    • 25 Views
    • 3 Posts
    • 106 Views
    • 1 Posts
    • 74 Views