Πήγαινε στο περιεχόμενο
admin

JACK REACHER NEVER GO BACK (2016) 1080p BluRay x264-SPARKS

Recommended Posts

69830697949567101340.jpg

 

 

 

60160031996310074579.jpeg

 

 

 

Σκηνοθεσία: Edward Zwick

Σενάριο: Lee Child , Richard Wenk

Ηθοποιοί: Tom Cruise, Cobie Smulders, Aldis Hodge

Είδος: Action, Adventure, Crime

Πρεμιέρα: 10 November 2016 (Greece)

Yπότιτλοι: Eλληνικοί Ξεχωριστοί

Μετάφραση: ShitHigh&Watch

 

 

 

 

http://www.imdb.com/title/tt3393786/
Ο Τζακ Ρίτσερ επιστρέφει στη βάση του στη Βιρτζίνια, αλλά η συνάντηση του με τη Σούζαν δεν είναι αυτή που περίμενε. Αντί αυτού, η Σούζαν συλλαμβάνεται και νέα διοίκηση παίρνει τα ηνία. Ο Ρίτσερ απειλείται να επανασυνταχτεί στον στρατό, ώσπου κατηγορείται για τη δολοφονία ενός 16χρονου κοριτσιού.

 

 

 

 

 

 

Format : Matroska

Format version : Version 4 / Version 2

File size : 7.65 GiB

Duration : 1h 58mn

Overall bit rate : 9 269 Kbps

Encoded date : UTC 2017-01-19 00:31:41

Writing application : mkvmerge v8.3.0 ('Over the Horizon') 64bit

Writing library : libebml v1.3.1 + libmatroska v1.4.2

DURATION : 01:58:08.960000000

NUMBER_OF_FRAMES : 221530

NUMBER_OF_BYTES : 567116800

_STATISTICS_WRITING_APP : mkvmerge v8.3.0 ('Over the Horizon') 64bit

_STATISTICS_WRITING_DATE_UTC : 2017-01-19 00:31:41

_STATISTICS_TAGS : BPS DURATION NUMBER_OF_FRAMES NUMBER_OF_BYTES

 

Video

ID : 1

Format : AVC

Format/Info : Advanced Video Codec

Format profile : [email protected].1

Format settings, CABAC : Yes

Format settings, ReFrames : 5 frames

Codec ID : V_MPEG4/ISO/AVC

Duration : 1h 58mn

Bit rate : 8 631 Kbps

Width : 1 920 pixels

Height : 808 pixels

Display aspect ratio : 2.40:1

Frame rate mode : Constant

Frame rate : 23.976 fps

Color space : YUV

Chroma subsampling : 4:2:0

Bit depth : 8 bits

Scan type : Progressive

Bits/(Pixel*Frame) : 0.232

Stream size : 6.97 GiB (91%)

Writing library : x264 core 148 r2744 b97ae06

Encoding settings : cabac=1 / ref=5 / deblock=1:0:0 / analyse=0x3:0x133 / me=umh / subme=7 / psy=1 / psy_rd=1.00:0.00 / mixed_ref=1 / me_range=16 / chroma_me=1 / trellis=1 / 8x8dct=1 / cqm=0 / deadzone=21,11 / fast_pskip=0 / chroma_qp_offset=-2 / threads=25 / lookahead_threads=4 / sliced_threads=0 / nr=0 / decimate=1 / interlaced=0 / bluray_compat=0 / constrained_intra=0 / bframes=3 / b_pyramid=2 / b_adapt=1 / b_bias=0 / direct=1 / weightb=1 / open_gop=0 / weightp=2 / keyint=250 / keyint_min=23 / scenecut=40 / intra_refresh=0 / rc_lookahead=40 / rc=2pass / mbtree=1 / bitrate=8631 / ratetol=1.0 / qcomp=0.60 / qpmin=0 / qpmax=69 / qpstep=4 / cplxblur=20.0 / qblur=0.5 / ip_ratio=1.40 / aq=1:1.00

Language : English

Default : Yes

Forced : No

DURATION : 01:58:08.927000000

NUMBER_OF_FRAMES : 169964

NUMBER_OF_BYTES : 7644253639

_STATISTICS_WRITING_APP : mkvmerge v8.3.0 ('Over the Horizon') 64bit

_STATISTICS_WRITING_DATE_UTC : 2017-01-19 00:31:41

_STATISTICS_TAGS : BPS DURATION NUMBER_OF_FRAMES NUMBER_OF_BYTES

 

Audio

ID : 2

Format : AC-3

Format/Info : Audio Coding 3

Mode extension : CM (complete main)

Format settings, Endianness : Big

Codec ID : A_AC3

Duration : 1h 58mn

Bit rate mode : Constant

Bit rate : 640 Kbps

Channel(s) : 6 channels

Channel positions : Front: L C R, Side: L R, LFE

Sampling rate : 48.0 KHz

Compression mode : Lossy

Stream size : 541 MiB (7%)

Language : English

Default : Yes

Forced : No

 

 

 

 

https://www.youtube.com/watch?v=aRwrdbcAh2s

 

 

 

WORLDBYTEZ

Kρυφό περιεχόμενο

    Απάντηση σε αυτό το θέμα για να δείτε το κρυφό περιεχόμενο.

Share this post


Link to post
Δημοσίευση σε άλλες σελίδες

Δημιουργήστε ένα λογαριασμό ή συνδεθείτε για να σχολιάσετε

Χρειάζεται να είστε χρήστης για να μπορέσετε να σχολιάσετε

Δημιουργία λογαριασμού

Εγγραφείτε για ένα νέο λογαριασμό στην κοινότητά μας. Είναι εύκολο!

Εγγραφή νέου λογαριασμού

Συνδεθείτε

Έχετε ήδη λογαριασμό? Συνδεθείτε εδώ.

Συνδεθείτε τώρα