Πήγαινε στο περιεχόμενο
Gamato
Αναζήτηση σε...
  • More options...
Βρείτε αποτελέσματα που ...
Βρείτε αποτελέσματα σε...
  • GAMATO

    «GAMATO The Greek Community»

    Το GAMATO είναι ένα υπέροχο λειτουργικά σχεδιασμένο Website με πλούσιο και ενεργό υλικό κατεβάσματος ανά κατηγορία. Χρειάζεται μία απλή εγγραφή με ένα email σας και να είστε λίγο εξοικειωμένοι με τη διαδικασία κατεβάσματος μέσω filehosting services WORLDBYTEZ. See more...

  • WORLDBYTEZ

    Worldbytez είναι ένα υπέροχο λειτουργικά σχεδιασμένος filehosting με πλούσιο και ενεργό υλικό, Χρειάζεται μία απλή εγγραφή με ένα email σας και να είστε λίγο εξοικειωμένοι με τη διαδικασία κατεβάσματος μέσω filehosting services WORLDBYTEZ. See more...

  • GAMATO

    «GAMATO The Greek Community»

    Το GAMATO είναι ένα υπέροχο λειτουργικά σχεδιασμένο Website με πλούσιο και ενεργό υλικό κατεβάσματος ανά κατηγορία. Χρειάζεται μία απλή εγγραφή με ένα email σας και να είστε λίγο εξοικειωμένοι με τη διαδικασία κατεβάσματος μέσω filehosting services WORLDBYTEZ. See more...

  • WORLDBYTEZ

    Worldbytez είναι ένα υπέροχο λειτουργικά σχεδιασμένος filehosting με πλούσιο και ενεργό υλικό, Χρειάζεται μία απλή εγγραφή με ένα email σας και να είστε λίγο εξοικειωμένοι με τη διαδικασία κατεβάσματος μέσω filehosting services WORLDBYTEZ. See more...

Shootbox

ΠΩΣ ΚΑΤΕΒΑΖΟΥΜΕ VIDEO VIDEO
ΓΙΝΕ ΑΜΕΣΑ PREMIUMΚΑΙ ΚΑΤΕΒΑΣΤΕ ΑΡΧΕΙΑ ΑΜΕΣΑ ΜΕ ΤΟΝ IDM
ΑΠΑΓΟΡΕΥΕΤΑΙ ΟΠΟΙΑΔΗΠΟΤΕ ΒΟΗΘΕΙΑ ΣΤΟ CHAT ΥΠΑΡΧΕΙ SECTION ΒΟΗΘΕΙΑΣ

Load More
Δεν έχετε άδεια για συνομιλία παρακαλούμε εγγραφείτε.

NEWS

Tα θεματα του φορουμ εχουν λινκ αποκλειστικα στο Worldbytez

Eκμεταλλευτειτε τις νεες χαμηλες τιμες για premium συνδρομες για να εχετε απεριοριστο downloading

Lusion

SEVENTH SON (2014) 1080p BluRay x264-SECTOR7


Recommended Posts

SEVENTH SON (2014)

Ξεχωριστοί Ελληνικοί Υπότιτλοι

 

23888711255535144131.jpg

 

76124955241920379317.jpg

 

 

Σκηνοθεσία: Sergey Bodrov

Σενάριο: Charles Leavitt (screenplay), Steven Knight

Ηθοποιοί: Ben Barnes, Julianne Moore, Jeff Bridges

Είδος: Action | Adventure | Fantasy

Πρεμιέρα: 25 December 2014 (Greece)

Yπότιτλοι: Eλληνικοί Ξεχωριστοί

Μετάφραση: Άγνωστος

 

 

 

Kρυφό περιεχόμενο

    Απάντηση σε αυτό το θέμα για να δείτε το κρυφό περιεχόμενο.

Σε ένα μακρινό παρελθόν το "κακό" ετοιμάζεται να επιτεθεί και να αναζωπυρώσει τη μάχη ανάμεσα στους ανθρώπους και τις δυνάμεις του υπερφυσικού δυνάμεις. Ο "δάσκαλος" John Gregory (Jeff Bridges) είναι ο τελευταίος από τους Ιππότες Falcon, είχε καταφέρει να φυλακίσει την πανίσχυρη κακιά μάγισσα , μητέρα Malkin (Julianne Moore). Μόνο που τώρα εκείνη απέδρασε και ψάχνει εκδίκηση, καλώντας τους ακόλουθούς της για να ετοιμάσουν την επίθεσή τους στον ανυποψίαστο κόσμο των ανθρώπων. Ο Gregory θα πρέπει να καταφέρει να εκπαιδεύσει τον μαθητευόμενό του (Ben Barnes) μέχρι την επόμενη πανσέληνο, για να μπορέσει τη σκοτεινή μαγεία που πλησιάζει. Η μόνη ελπίδα των ανθρώπων είναι στα χέρια του έβδομου γιου, ενός έβδομου γιου.

 

Ο Ρώσος σκηνοθέτης Sergey Bodrov δοκιμάζει πρώτη φορά τις δυνάμεις του σε project μεγάλου studio και μάλιστα σε μια περιπέτεια επικής φαντασίας. Το «Seventh Son» μεταφέρει (μάλλον όχι ιδιαίτερα πιστά) στο πρώτο βιβλίο "The Spook's Apprentice" της σειράς του Joseph Delaney "The Wardstone Chronicles".

 

 

 

Format : Matroska

Format version : Version 2

File size : 7.65 GiB

Duration : 1h 41mn

Overall bit rate : 10.7 Mbps

Writing application : mkvmerge v6.6.0 ('The Edge Of The In Between') built on Dec 1 2013 17:55:00

Writing library : libebml v1.3.0 + libmatroska v1.4.1

 

Video

ID : 1

Format : AVC

Format/Info : Advanced Video Codec

Format profile : [email protected]

Format settings, CABAC : Yes

Format settings, ReFrames : 5 frames

Codec ID : V_MPEG4/ISO/AVC

Duration : 1h 41mn

Bit rate : 9 234 Kbps

Width : 1 920 pixels

Height : 800 pixels

Display aspect ratio : 2.40:1

Frame rate : 23.976 fps

Color space : YUV

Chroma subsampling : 4:2:0

Bit depth : 8 bits

Scan type : Progressive

Bits/(Pixel*Frame) : 0.251

Stream size : 6.43 GiB (84%)

Writing library : x264 core 146 r2538 121396c

Encoding settings : cabac=1 / ref=5 / deblock=1:0:0 / analyse=0x3:0x133 / me=umh / subme=8 / psy=1 / psy_rd=1.00:0.00 / mixed_ref=1 / me_range=16 / chroma_me=1 / trellis=1 / 8x8dct=1 / cqm=0 / deadzone=21,11 / fast_pskip=0 / chroma_qp_offset=-2 / threads=12 / lookahead_threads=2 / sliced_threads=0 / nr=0 / decimate=1 / interlaced=0 / bluray_compat=0 / constrained_intra=0 / bframes=3 / b_pyramid=2 / b_adapt=2 / b_bias=0 / direct=3 / weightb=1 / open_gop=0 / weightp=2 / keyint=250 / keyint_min=23 / scenecut=40 / intra_refresh=0 / rc_lookahead=50 / rc=2pass / mbtree=1 / bitrate=9234 / ratetol=1.0 / qcomp=0.60 / qpmin=0 / qpmax=69 / qpstep=4 / cplxblur=20.0 / qblur=0.5 / ip_ratio=1.40 / aq=1:1.00

Language : English

Default : Yes

Forced : No

 

Audio

ID : 2

Format : DTS

Format/Info : Digital Theater Systems

Codec ID : A_DTS

Duration : 1h 41mn

Bit rate mode : Constant

Bit rate : 1 510 Kbps

Channel(s) : 6 channels

Channel positions : Front: L C R, Side: L R, LFE

Sampling rate : 48.0 KHz

Bit depth : 24 bits

Compression mode : Lossy

Stream size : 1.08 GiB (14%)

Title : English

Language : English

Default : Yes

Forced : No

 

 

 

https://www.youtube.com/watch?v=TXiNkOjM7oM

 

 

 

 

WORLDBYTEZ

Kρυφό περιεχόμενο

    Απάντηση σε αυτό το θέμα για να δείτε το κρυφό περιεχόμενο.

Share this post


Link to post
Δημοσίευση σε άλλες σελίδες

Δημιουργήστε ένα λογαριασμό ή συνδεθείτε για να σχολιάσετε

Χρειάζεται να είστε χρήστης για να μπορέσετε να σχολιάσετε

Δημιουργία λογαριασμού

Εγγραφείτε για ένα νέο λογαριασμό στην κοινότητά μας. Είναι εύκολο!

Εγγραφή νέου λογαριασμού

Συνδεθείτε

Έχετε ήδη λογαριασμό? Συνδεθείτε εδώ.

Συνδεθείτε τώρα
    • 1 Posts
    • 65 Views

×