Πήγαινε στο περιεχόμενο
admin

PASSENGERS (2016) 720p BluRay x264-SPARKS

Recommended Posts

49414592589597847970.jpg

 

77094246037774075351.jpeg

 

 

Σκηνοθεσία: Morten Tyldum

Σενάριο: Jon Spaihts

Ηθοποιοί: Jennifer Lawrence, Chris Pratt, Michael Sheen, Andy Garcia

Είδος: Adventure, Drama, Romance

Πρεμιέρα:29 December 2016 (Greece)

Yπότιτλοι: Eλληνικοί Ξεχωριστοί

Μετάφραση:

 

 

 

 

 

 

http://www.imdb.com/title/tt1355644/
Ένα διαστημόπλοιο ταξιδεύει σε έναν μακρινό αποικιακό πλανήτη και μεταφέρει χιλιάδες ανθρώπων. Αλλά ξαφνικά παρουσιάζεται βλάβη σε έναν από τους θαλάμους ύπνωσης. Αποτέλεσμα είναι ένας επιβάτης να ξυπνήσει 60 χρόνια νωρίτερα. Αντιμετωπίζοντας την πιθανότητα να γεράσει και πεθάνει ολομόναχος, αποφασίζει να ξυπνήσει κι έναν άλλον επιβάτη.

 

 

 

 

 

 

Format : Matroska

Format version : Version 4 / Version 2

File size : 5.47 GiB

Duration : 1h 56mn

Overall bit rate : 6 734 Kbps

Encoded date : UTC 2017-02-28 01:30:18

Writing application : mkvmerge v8.3.0 ('Over the Horizon') 64bit

Writing library : libebml v1.3.1 + libmatroska v1.4.2

DURATION : 01:48:18.450000000

NUMBER_OF_FRAMES : 1619

NUMBER_OF_BYTES : 46374

_STATISTICS_WRITING_APP : mkvmerge v8.3.0 ('Over the Horizon') 64bit

_STATISTICS_WRITING_DATE_UTC : 2017-02-28 01:30:18

_STATISTICS_TAGS : BPS DURATION NUMBER_OF_FRAMES NUMBER_OF_BYTES

 

Video

ID : 1

Format : AVC

Format/Info : Advanced Video Codec

Format profile : [email protected].1

Format settings, CABAC : Yes

Format settings, ReFrames : 5 frames

Codec ID : V_MPEG4/ISO/AVC

Duration : 1h 56mn

Bit rate : 5 223 Kbps

Width : 1 280 pixels

Height : 536 pixels

Display aspect ratio : 2.40:1

Frame rate mode : Constant

Frame rate : 23.976 fps

Color space : YUV

Chroma subsampling : 4:2:0

Bit depth : 8 bits

Scan type : Progressive

Bits/(Pixel*Frame) : 0.318

Stream size : 4.13 GiB (76%)

Writing library : x264 core 148 r2744 b97ae06

Encoding settings : cabac=1 / ref=5 / deblock=1:0:0 / analyse=0x3:0x133 / me=umh / subme=7 / psy=1 / psy_rd=1.00:0.00 / mixed_ref=1 / me_range=16 / chroma_me=1 / trellis=1 / 8x8dct=1 / cqm=0 / deadzone=21,11 / fast_pskip=0 / chroma_qp_offset=-2 / threads=17 / lookahead_threads=2 / sliced_threads=0 / nr=0 / decimate=1 / interlaced=0 / bluray_compat=0 / constrained_intra=0 / bframes=3 / b_pyramid=2 / b_adapt=1 / b_bias=0 / direct=1 / weightb=1 / open_gop=0 / weightp=2 / keyint=250 / keyint_min=23 / scenecut=40 / intra_refresh=0 / rc_lookahead=40 / rc=2pass / mbtree=1 / bitrate=5223 / ratetol=1.0 / qcomp=0.60 / qpmin=0 / qpmax=69 / qpstep=4 / cplxblur=20.0 / qblur=0.5 / ip_ratio=1.40 / aq=1:1.00

Language : English

Default : Yes

Forced : No

DURATION : 01:56:10.892000000

NUMBER_OF_FRAMES : 167134

NUMBER_OF_BYTES : 4551006101

_STATISTICS_WRITING_APP : mkvmerge v8.3.0 ('Over the Horizon') 64bit

_STATISTICS_WRITING_DATE_UTC : 2017-02-28 01:30:18

_STATISTICS_TAGS : BPS DURATION NUMBER_OF_FRAMES NUMBER_OF_BYTES

 

Audio

ID : 2

Format : DTS

Format/Info : Digital Theater Systems

Mode : 16

Format settings, Endianness : Big

Codec ID : A_DTS

Duration : 1h 56mn

Bit rate mode : Constant

Bit rate : 1 509 Kbps

Channel(s) : 6 channels

Channel positions : Front: L C R, Side: L R, LFE

Sampling rate : 48.0 KHz

Bit depth : 24 bits

Compression mode : Lossy

Stream size : 1.22 GiB (22%)

Language : English

Default : Yes

Forced : No

 

 

 

 

https://www.youtube.com/watch?v=v4d8ggMC260

 

 

 

 

WORLDBYTEZ

Kρυφό περιεχόμενο

    Απάντηση σε αυτό το θέμα για να δείτε το κρυφό περιεχόμενο.

Share this post


Link to post
Δημοσίευση σε άλλες σελίδες

Δημιουργήστε ένα λογαριασμό ή συνδεθείτε για να σχολιάσετε

Χρειάζεται να είστε χρήστης για να μπορέσετε να σχολιάσετε

Δημιουργία λογαριασμού

Εγγραφείτε για ένα νέο λογαριασμό στην κοινότητά μας. Είναι εύκολο!

Εγγραφή νέου λογαριασμού

Συνδεθείτε

Έχετε ήδη λογαριασμό? Συνδεθείτε εδώ.

Συνδεθείτε τώρα