Πήγαινε στο περιεχόμενο
admin

THE CONDEMNED 2 (2015) 1080p BluRay x264-ROVERS

Recommended Posts

THE CONDEMNED 2 (2015)

Ξεχωριστοί Ελληνικοί Υπότιτλοι

 

39293400390547924857.jpg

 

59923103293153763280.jpg

 

 

Σκηνοθεσία: Roel Reiné

Σενάριο: Alan B. McElroy

Ηθοποιοί: Randy Orton, Eric Roberts, Wes Studi

Είδος: Action

Πρεμιέρα: 6 November 2015 (USA)

Yπότιτλοι: Eλληνικοί Ξεχωριστοί

Μετάφραση: DownUnder

 

 

http://www.imdb.com/title/tt4151192/

 

Ένας πρώην κυνηγός επικηρυγμένων γίνεται θήραμα, στα πλαίσια ενός ανανεωμένου τουρνουά καταδίκων, στο οποίο οι κατάδικοι είναι αναγκασμένοι να πολεμούν μεταξύ τους για το θάνατο ως μέρος ενός παιχνιδιού που εκπέμπονται τηλεοπτικά για το κοινό.

 

 

 

Format : Matroska

Format version : Version 4 / Version 2

File size : 6.55 GiB

Duration : 1h 30mn

Overall bit rate : 10.4 Mbps

Encoded date : UTC 2015-12-31 08:26:33

Writing application : mkvmerge v8.3.0 ('Over the Horizon') 64bit

Writing library : libebml v1.3.1 + libmatroska v1.4.2

 

Video

ID : 1

Format : AVC

Format/Info : Advanced Video Codec

Format profile : [email protected].1

Format settings, CABAC : Yes

Format settings, ReFrames : 4 frames

Codec ID : V_MPEG4/ISO/AVC

Duration : 1h 30mn

Bit rate : 8 894 Kbps

Width : 1 920 pixels

Height : 1 080 pixels

Display aspect ratio : 16:9

Frame rate mode : Constant

Frame rate : 23.976 fps

Color space : YUV

Chroma subsampling : 4:2:0

Bit depth : 8 bits

Scan type : Progressive

Bits/(Pixel*Frame) : 0.179

Stream size : 5.60 GiB (85%)

Writing library : x264 core 148 r2638 7599210

Encoding settings : cabac=1 / ref=4 / deblock=1:0:0 / analyse=0x3:0x133 / me=umh / subme=7 / psy=1 / psy_rd=1.00:0.00 / mixed_ref=1 / me_range=16 / chroma_me=1 / trellis=1 / 8x8dct=1 / cqm=0 / deadzone=21,11 / fast_pskip=0 / chroma_qp_offset=-2 / threads=12 / lookahead_threads=2 / sliced_threads=0 / nr=0 / decimate=1 / interlaced=0 / bluray_compat=0 / constrained_intra=0 / bframes=3 / b_pyramid=2 / b_adapt=1 / b_bias=0 / direct=1 / weightb=1 / open_gop=0 / weightp=2 / keyint=250 / keyint_min=23 / scenecut=40 / intra_refresh=0 / rc_lookahead=40 / rc=2pass / mbtree=1 / bitrate=8894 / ratetol=1.0 / qcomp=0.60 / qpmin=0 / qpmax=69 / qpstep=4 / cplxblur=20.0 / qblur=0.5 / ip_ratio=1.40 / aq=1:1.00

Language : English

Default : Yes

Forced : No

 

Audio

ID : 2

Format : DTS

Format/Info : Digital Theater Systems

Mode : 16

Format settings, Endianness : Big

Codec ID : A_DTS

Duration : 1h 30mn

Bit rate mode : Constant

Bit rate : 1 509 Kbps

Channel(s) : 6 channels

Channel positions : Front: L C R, Side: L R, LFE

Sampling rate : 48.0 KHz

Frame rate : 93.750 fps (512 spf)

Bit depth : 24 bits

Compression mode : Lossy

Stream size : 974 MiB (15%)

Language : English

Default : Yes

Forced : No

 

 

 

https://www.youtube.com/watch?v=v_f1sm1LpuE

 

 

 

 

WORLDBYTEZ

Kρυφό περιεχόμενο

    Απάντηση σε αυτό το θέμα για να δείτε το κρυφό περιεχόμενο.

Share this post


Link to post
Δημοσίευση σε άλλες σελίδες

Δημιουργήστε ένα λογαριασμό ή συνδεθείτε για να σχολιάσετε

Χρειάζεται να είστε χρήστης για να μπορέσετε να σχολιάσετε

Δημιουργία λογαριασμού

Εγγραφείτε για ένα νέο λογαριασμό στην κοινότητά μας. Είναι εύκολο!

Εγγραφή νέου λογαριασμού

Συνδεθείτε

Έχετε ήδη λογαριασμό? Συνδεθείτε εδώ.

Συνδεθείτε τώρα