Πήγαινε στο περιεχόμενο
Gamato
Αναζήτηση σε...
  • More options...
Βρείτε αποτελέσματα που ...
Βρείτε αποτελέσματα σε...
  • GAMATO

    «GAMATO The Greek Community»

    Το GAMATO είναι ένα υπέροχο λειτουργικά σχεδιασμένο Website με πλούσιο και ενεργό υλικό κατεβάσματος ανά κατηγορία. Χρειάζεται μία απλή εγγραφή με ένα email σας και να είστε λίγο εξοικειωμένοι με τη διαδικασία κατεβάσματος μέσω filehosting services WORLDBYTEZ. See more...

  • WORLDBYTEZ

    Worldbytez είναι ένα υπέροχο λειτουργικά σχεδιασμένος filehosting με πλούσιο και ενεργό υλικό, Χρειάζεται μία απλή εγγραφή με ένα email σας και να είστε λίγο εξοικειωμένοι με τη διαδικασία κατεβάσματος μέσω filehosting services WORLDBYTEZ. See more...

  • GAMATO

    «GAMATO The Greek Community»

    Το GAMATO είναι ένα υπέροχο λειτουργικά σχεδιασμένο Website με πλούσιο και ενεργό υλικό κατεβάσματος ανά κατηγορία. Χρειάζεται μία απλή εγγραφή με ένα email σας και να είστε λίγο εξοικειωμένοι με τη διαδικασία κατεβάσματος μέσω filehosting services WORLDBYTEZ. See more...

  • WORLDBYTEZ

    Worldbytez είναι ένα υπέροχο λειτουργικά σχεδιασμένος filehosting με πλούσιο και ενεργό υλικό, Χρειάζεται μία απλή εγγραφή με ένα email σας και να είστε λίγο εξοικειωμένοι με τη διαδικασία κατεβάσματος μέσω filehosting services WORLDBYTEZ. See more...

Shootbox

ΠΩΣ ΚΑΤΕΒΑΖΟΥΜΕ VIDEO VIDEO
ΓΙΝΕ ΑΜΕΣΑ PREMIUMΚΑΙ ΚΑΤΕΒΑΣΤΕ ΑΡΧΕΙΑ ΑΜΕΣΑ ΜΕ ΤΟΝ IDM
ΑΠΑΓΟΡΕΥΕΤΑΙ ΟΠΟΙΑΔΗΠΟΤΕ ΒΟΗΘΕΙΑ ΣΤΟ CHAT ΥΠΑΡΧΕΙ SECTION ΒΟΗΘΕΙΑΣ

Load More
Δεν έχετε άδεια για συνομιλία παρακαλούμε εγγραφείτε.

NEWS

Tα θεματα του φορουμ εχουν λινκ αποκλειστικα στο Worldbytez

Eκμεταλλευτειτε τις νεες χαμηλες τιμες για premium συνδρομες για να εχετε απεριοριστο downloading

Lusion

THE CIRCLE (2017) 720p BluRay x264 DTS-HDC


Recommended Posts

87463397733270680176.jpeg

 

65284023475183449731.jpeg

 

 

Σκηνοθεσία: James Ponsoldt

Σενάριο: James Ponsoldt, Dave Eggers, Dave Eggers

Ηθοποιοί: Emma Watson, Ellar Coltrane, Glenne Headly, Bill Paxton

Είδος: Drama, Sci-Fi, Thriller

Πρεμιέρα: 13 July 2017 (Greece)

Yπότιτλοι: Eλληνικοί Ξεχωριστοί

Μετάφραση:ShitHigh&Watch

 

 

 

 

http://www.imdb.com/title/tt4287320/
Όταν η Μάι Χόλαντ προσλαμβάνεται να εργαστεί στον Κύκλο, την πιο ισχυρή εταιρία ίντερνετ στον κόσμο, αισθάνεται ότι αυτή είναι η ευκαιρία της ζωής της. Ο Κύκλος, που στεγάζεται σε ένα ολόκληρο δίκτυο χώρων στην Καλιφόρνια, σε συνδέει με προσωπικά e-mail, social media, τραπεζικές διευθύνσεις και αγορές ανά τον πλανήτη, καταλήγοντας σε μία online ταυτότητα και μια νέα εποχή στην έννοια του ιδιωτικού και της διαφάνειας. Καθώς η Μάι ξεναγείται σε αυτό τον νέο κόσμο, θαμπώνεται με τον μοντερνισμό του χώρου και την όλη δραστηριότητα: πάρτι που κρατάνε όλη νύχτα, διάσημοι μουσικοί που παίζουν στο γκαζόν, αθλητικές δραστηριότητες και κλαμπ και μαγαζιά, ακόμα κι ένα ενυδρείο με σπάνια ψάρια. Αυτό όμως που ξεκινάει ως μια σαγηνευτική ιστορία μιας γυναίκας με φιλοδοξίες και ιδεαλισμό, γρήγορα καταλήγει σε μια κούρσα αγωνίας.

 

 

 

 

 

 

Format : Matroska

Format version : Version 4 / Version 2

File size : 5.76 GiB

Duration : 1h 49mn

Overall bit rate : 7 506 Kbps

Movie name : The.Circle.2017.720p.BluRay.x264.DTS-HDC

Encoded date : UTC 2017-07-20 08:11:50

Writing application : mkvmerge v13.0.0 ('The Juggler') 64bit

Writing library : libebml v1.3.4 + libmatroska v1.4.5

Attachements : cover_land.jpg / small_cover.jpg / small_cover_land.jpg / cover.jpg

 

Video

ID : 1

Format : AVC

Format/Info : Advanced Video Codec

Format profile : [email protected]

Format settings, CABAC : Yes

Format settings, ReFrames : 12 frames

Codec ID : V_MPEG4/ISO/AVC

Duration : 1h 49mn

Bit rate : 6 000 Kbps

Width : 1 280 pixels

Height : 534 pixels

Display aspect ratio : 2.40:1

Frame rate mode : Constant

Frame rate : 23.976 fps

Color space : YUV

Chroma subsampling : 4:2:0

Bit depth : 8 bits

Scan type : Progressive

Bits/(Pixel*Frame) : 0.366

Stream size : 4.48 GiB (78%)

Writing library : x264 core 148 r2665kMod a01e339

Encoding settings : cabac=1 / ref=12 / deblock=1:-3:-3 / analyse=0x3:0x133 / me=umh / subme=11 / psy=1 / fade_compensate=0.00 / psy_rd=1.05:0.00 / mixed_ref=1 / me_range=32 / chroma_me=1 / trellis=2 / 8x8dct=1 / cqm=0 / deadzone=21,11 / fast_pskip=0 / chroma_qp_offset=-2 / threads=17 / lookahead_threads=2 / sliced_threads=0 / nr=0 / decimate=0 / interlaced=0 / bluray_compat=0 / constrained_intra=0 / fgo=0 / bframes=8 / b_pyramid=2 / b_adapt=2 / b_bias=0 / direct=3 / weightb=1 / open_gop=0 / weightp=2 / keyint=240 / keyint_min=24 / scenecut=40 / intra_refresh=0 / rc=2pass / mbtree=0 / bitrate=6000 / ratetol=1.0 / qcomp=0.70 / qpmin=0 / qpmax=69 / qpstep=4 / cplxblur=20.0 / qblur=0.5 / ip_ratio=1.20 / pb_ratio=1.20 / aq=3:0.85

Language : English

Default : Yes

Forced : No

 

Audio

ID : 2

Format : DTS

Format/Info : Digital Theater Systems

Mode : 16

Format settings, Endianness : Big

Codec ID : A_DTS

Duration : 1h 49mn

Bit rate mode : Constant

Bit rate : 1 509 Kbps

Channel(s) : 6 channels

Channel positions : Front: L C R, Side: L R, LFE

Sampling rate : 48.0 KHz

Bit depth : 24 bits

Compression mode : Lossy

Stream size : 1.16 GiB (20%)

Language : English

Default : Yes

Forced : No

 

 

 

 

https://www.youtube.com/watch?v=DAploIjKJ5k

 

 

 

WORLDBYTEZ

Kρυφό περιεχόμενο

    Απάντηση σε αυτό το θέμα για να δείτε το κρυφό περιεχόμενο.

Share this post


Link to post
Δημοσίευση σε άλλες σελίδες

Δημιουργήστε ένα λογαριασμό ή συνδεθείτε για να σχολιάσετε

Χρειάζεται να είστε χρήστης για να μπορέσετε να σχολιάσετε

Δημιουργία λογαριασμού

Εγγραφείτε για ένα νέο λογαριασμό στην κοινότητά μας. Είναι εύκολο!

Εγγραφή νέου λογαριασμού

Συνδεθείτε

Έχετε ήδη λογαριασμό? Συνδεθείτε εδώ.

Συνδεθείτε τώρα
    • 1 Posts
    • 21 Views
    • 2 Posts
    • 183 Views
    • 1 Posts
    • 70 Views
    • 1 Posts
    • 133 Views
    • bigo
    • bigo

×