Πήγαινε στο περιεχόμενο
admin

DUMB AND DUMBER TO (2014) 720p BluRay x264-SPARKS

Recommended Posts

70339588018753618992.jpg

 

82921153465491899965.jpeg

 

 

Σκηνοθεσία: Bobby Farrelly, Peter Farrelly

Σενάριο: Sean Anders, Mike Cerrone, Bobby Farrelly, Peter Farrelly, John Morris, Bennett Yellin

Ηθοποιοί: Jim Carrey, Jeff Daniels, Rob Riggle, Laurie Holden

Είδος: Comedy

Πρεμιέρα: 4 December 2014 (Greece)

Yπότιτλοι: Eλληνικοί Ξεχωριστοί

Μετάφραση: FoxyGroup

 

 

 

 

 

 

 

 

 

[size=4]http://www.imdb.com/title/tt2096672/[/size]
Είκοσι χρόνια μετά την τελευταία τους περιπέτεια, οι καλόκαρδοι, αν και όχι ιδιαίτερα έξυπνοι, κολλητοί Harry Dunne (Jeff Danniels) και Lloyd Christmas (Jim Carrey) ξανασμίγουν. Όταν ο Harry μαθαίνει ότι έχει μια κόρη κάπου εκεί έξω, προσπαθεί να βγάλει τον Lloyd από την κωματώδη κατάσταση στην οποία έχει περιπέσει μετά τη χοντρή χυλόπιτα που έφαγε από τη Mary και να τον πείσει να διασχίσουν ολόκληρη τη χώρα, για να την αναζητήσουν. Ο Lloyd εντωμεταξύ είναι και πάλι ερωτευμένος. Μετά από τόσο χρόνια όλα, εκτός από την ηλιθιότητά τους, έχουν αλλάξει. Σε αυτό το ταξίδι θα ξεκινήσουν από ένα ίδρυμα, στο οποίο θα έπρεπε να είναι κανονικά εσώκλειστοι, και θα βρεθούν σε μια σύνοδο κορυφής, όπου έχουν μαζευτεί τα λαμπρότερα μυαλά όλου του κόσμου.

 

 

 

Format : Matroska

Format version : Version 4 / Version 2

File size : 5.46 GiB

Duration : 1h 49mn

Overall bit rate : 7 141 Kbps

Encoded date : UTC 2015-02-05 21:54:10

Writing application : mkvmerge v6.2.0 ('Promised Land') built on Apr 28 2013 12:22:01

Writing library : libebml v1.3.0 + libmatroska v1.4.0

 

Video

ID : 1

Format : AVC

Format/Info : Advanced Video Codec

Format profile : [email protected].1

Format settings, CABAC : Yes

Format settings, ReFrames : 5 frames

Codec ID : V_MPEG4/ISO/AVC

Duration : 1h 49mn

Bit rate : 5 630 Kbps

Width : 1 280 pixels

Height : 688 pixels

Display aspect ratio : 1.85:1

Frame rate mode : Constant

Frame rate : 23.976 fps

Color space : YUV

Chroma subsampling : 4:2:0

Bit depth : 8 bits

Scan type : Progressive

Bits/(Pixel*Frame) : 0.267

Stream size : 4.20 GiB (77%)

Writing library : x264 core 144 r2525 40bb568

Encoding settings : cabac=1 / ref=5 / deblock=1:0:0 / analyse=0x3:0x133 / me=umh / subme=7 / psy=1 / psy_rd=1.00:0.00 / mixed_ref=1 / me_range=16 / chroma_me=1 / trellis=1 / 8x8dct=1 / cqm=0 / deadzone=21,11 / fast_pskip=0 / chroma_qp_offset=-2 / threads=18 / lookahead_threads=3 / sliced_threads=0 / nr=0 / decimate=1 / interlaced=0 / bluray_compat=0 / constrained_intra=0 / bframes=3 / b_pyramid=2 / b_adapt=1 / b_bias=0 / direct=1 / weightb=1 / open_gop=0 / weightp=2 / keyint=250 / keyint_min=23 / scenecut=40 / intra_refresh=0 / rc_lookahead=40 / rc=2pass / mbtree=1 / bitrate=5630 / ratetol=1.0 / qcomp=0.60 / qpmin=0 / qpmax=69 / qpstep=4 / cplxblur=20.0 / qblur=0.5 / ip_ratio=1.40 / aq=1:1.00

Language : English

Default : Yes

Forced : No

 

Audio

ID : 2

Format : DTS

Format/Info : Digital Theater Systems

Mode : 16

Format settings, Endianness : Big

Codec ID : A_DTS

Duration : 1h 49mn

Bit rate mode : Constant

Bit rate : 1 509 Kbps

Channel count : 6 channels

Channel positions : Front: L C R, Side: L R, LFE

Sampling rate : 48.0 KHz

Bit depth : 24 bits

Compression mode : Lossy

Stream size : 1.15 GiB (21%)

Language : English

Default : Yes

Forced

 

 

 

https://www.youtube.com/watch?v=mq1rt4iKuYg

 

 

 

 

WORLDBYTEZ

Kρυφό περιεχόμενο

    Απάντηση σε αυτό το θέμα για να δείτε το κρυφό περιεχόμενο.

Share this post


Link to post
Δημοσίευση σε άλλες σελίδες

Δημιουργήστε ένα λογαριασμό ή συνδεθείτε για να σχολιάσετε

Χρειάζεται να είστε χρήστης για να μπορέσετε να σχολιάσετε

Δημιουργία λογαριασμού

Εγγραφείτε για ένα νέο λογαριασμό στην κοινότητά μας. Είναι εύκολο!

Εγγραφή νέου λογαριασμού

Συνδεθείτε

Έχετε ήδη λογαριασμό? Συνδεθείτε εδώ.

Συνδεθείτε τώρα