Πήγαινε στο περιεχόμενο
Gamato
Αναζήτηση σε...
  • More options...
Βρείτε αποτελέσματα που ...
Βρείτε αποτελέσματα σε...
  • GAMATO

    «GAMATO The Greek Community»

    Το GAMATO είναι ένα υπέροχο λειτουργικά σχεδιασμένο Website με πλούσιο και ενεργό υλικό κατεβάσματος ανά κατηγορία. Χρειάζεται μία απλή εγγραφή με ένα email σας και να είστε λίγο εξοικειωμένοι με τη διαδικασία κατεβάσματος μέσω filehosting services WORLDBYTEZ. See more...

  • WORLDBYTEZ

    Worldbytez είναι ένα υπέροχο λειτουργικά σχεδιασμένος filehosting με πλούσιο και ενεργό υλικό, Χρειάζεται μία απλή εγγραφή με ένα email σας και να είστε λίγο εξοικειωμένοι με τη διαδικασία κατεβάσματος μέσω filehosting services WORLDBYTEZ. See more...

  • GAMATO

    «GAMATO The Greek Community»

    Το GAMATO είναι ένα υπέροχο λειτουργικά σχεδιασμένο Website με πλούσιο και ενεργό υλικό κατεβάσματος ανά κατηγορία. Χρειάζεται μία απλή εγγραφή με ένα email σας και να είστε λίγο εξοικειωμένοι με τη διαδικασία κατεβάσματος μέσω filehosting services WORLDBYTEZ. See more...

  • WORLDBYTEZ

    Worldbytez είναι ένα υπέροχο λειτουργικά σχεδιασμένος filehosting με πλούσιο και ενεργό υλικό, Χρειάζεται μία απλή εγγραφή με ένα email σας και να είστε λίγο εξοικειωμένοι με τη διαδικασία κατεβάσματος μέσω filehosting services WORLDBYTEZ. See more...

Shootbox

ΠΩΣ ΚΑΤΕΒΑΖΟΥΜΕ VIDEO VIDEO
ΓΙΝΕ ΑΜΕΣΑ PREMIUMΚΑΙ ΚΑΤΕΒΑΣΤΕ ΑΡΧΕΙΑ ΑΜΕΣΑ ΜΕ ΤΟΝ IDM
ΑΠΑΓΟΡΕΥΕΤΑΙ ΟΠΟΙΑΔΗΠΟΤΕ ΒΟΗΘΕΙΑ ΣΤΟ CHAT ΥΠΑΡΧΕΙ SECTION ΒΟΗΘΕΙΑΣ

Load More
Δεν έχετε άδεια για συνομιλία παρακαλούμε εγγραφείτε.

NEWS

Tα θεματα του φορουμ εχουν λινκ αποκλειστικα στο Worldbytez

Eκμεταλλευτειτε τις νεες χαμηλες τιμες για premium συνδρομες για να εχετε απεριοριστο downloading

Lusion

WYRMWOOD (2014) 1080p BluRay x264-CADAVER


Recommended Posts

05451836671831405959.jpg

 

74284157154223813836.jpeg

 

 

Σκηνοθεσία: Kiah Roache-Turner

Σενάριο: Kiah Roache-Turner (screenplay), Tristan Roache-Turner

Ηθοποιοί: Jay Gallagher, Bianca Bradey, Leon Burchill

Είδος: Action | Horror

Πρεμιέρα: 13 February 2015 (Australia)

Yπότιτλοι: Eλληνικοί Ξεχωριστοί

Μετάφραση: Άγνωστος

 

 

 

 

Kρυφό περιεχόμενο

    Απάντηση σε αυτό το θέμα για να δείτε το κρυφό περιεχόμενο.
Ο Barry είναι ένας ταλαντούχος μηχανικός και οικογενειάρχης του οποίου η ζωή διαλύεται την παραμονή του ξυπνήματος των ζόμπι. Η αδελφή του, Brooke, έχει απαχθεί από μια ομάδα στρατιωτών με μάσκες αερίων, με σκοπό να την παραδώσουν σε έναν ψυχωτικό γιατρό για πειραματόζωο. Ενώ η Brooke σχεδιάζει την απόδρασή της , ο Barry ψάχνει να τη βρει και συνεργάζεται με τον Benny, έναν ακόμη επιζόντα. Μαζί πρέπει να εξοπλιστούν και να προετοιμαστούν για μάχη με τις ορδές των σαρκοφάγων τεράτων στην αχανή έρημο της Αυστραλίας.

 

 

 

Format : Matroska

Format version : Version 4 / Version 2

File size : 7.94 GiB

Duration : 1h 38mn

Overall bit rate : 11.6 Mbps

Encoded date : UTC 2015-04-02 18:27:24

Writing application : mkvmerge v7.8.0 ('River Man') 64bit built on Mar 31 2015 17:07:47

Writing library : libebml v1.3.1 + libmatroska v1.4.2

 

Video

ID : 1

Format : AVC

Format/Info : Advanced Video Codec

Format profile : [email protected]

Format settings, CABAC : Yes

Format settings, ReFrames : 4 frames

Codec ID : V_MPEG4/ISO/AVC

Duration : 1h 38mn

Bit rate : 10.1 Mbps

Width : 1 920 pixels

Height : 1 080 pixels

Display aspect ratio : 16:9

Frame rate mode : Constant

Frame rate : 24.000 fps

Color space : YUV

Chroma subsampling : 4:2:0

Bit depth : 8 bits

Scan type : Progressive

Bits/(Pixel*Frame) : 0.202

Stream size : 6.75 GiB (85%)

Title : X264-1080

Writing library : x264 core 146 r2538 121396c

Encoding settings : cabac=1 / ref=4 / deblock=1:-3:-3 / analyse=0x3:0x113 / me=umh / subme=11 / psy=1 / psy_rd=1.05:0.00 / mixed_ref=1 / me_range=36 / chroma_me=1 / trellis=2 / 8x8dct=1 / cqm=0 / deadzone=6,6 / fast_pskip=0 / chroma_qp_offset=-2 / threads=12 / lookahead_threads=3 / sliced_threads=0 / nr=0 / decimate=0 / interlaced=0 / bluray_compat=0 / constrained_intra=0 / bframes=10 / b_pyramid=2 / b_adapt=2 / b_bias=0 / direct=3 / weightb=1 / open_gop=0 / weightp=2 / keyint=250 / keyint_min=24 / scenecut=40 / intra_refresh=0 / rc=2pass / mbtree=0 / bitrate=10066 / ratetol=1.0 / qcomp=0.80 / qpmin=0 / qpmax=69 / qpstep=4 / cplxblur=20.0 / qblur=0.5 / ip_ratio=1.10 / pb_ratio=1.10 / aq=1:0.60

Language : English

Default : Yes

Forced : No

 

Audio

ID : 2

Format : DTS

Format/Info : Digital Theater Systems

Mode : 16

Format settings, Endianness : Big

Codec ID : A_DTS

Duration : 1h 38mn

Bit rate mode : Constant

Bit rate : 1 509 Kbps

Channel count : 6 channels

Channel positions : Front: L C R, Side: L R, LFE

Sampling rate : 48.0 KHz

Bit depth : 24 bits

Compression mode : Lossy

Stream size : 1.04 GiB (13%)

Title : DTS 5.1

Language : English

Default : Yes

Forced : No

 

 

 

https://www.youtube.com/watch?v=i-vJjDHOI3A

 

 

 

 

WORLDBYTEZ

Kρυφό περιεχόμενο

    Απάντηση σε αυτό το θέμα για να δείτε το κρυφό περιεχόμενο.

Share this post


Link to post
Δημοσίευση σε άλλες σελίδες

Δημιουργήστε ένα λογαριασμό ή συνδεθείτε για να σχολιάσετε

Χρειάζεται να είστε χρήστης για να μπορέσετε να σχολιάσετε

Δημιουργία λογαριασμού

Εγγραφείτε για ένα νέο λογαριασμό στην κοινότητά μας. Είναι εύκολο!

Εγγραφή νέου λογαριασμού

Συνδεθείτε

Έχετε ήδη λογαριασμό? Συνδεθείτε εδώ.

Συνδεθείτε τώρα

×