Πήγαινε στο περιεχόμενο
admin

A CURE FOR WELLNESS (2016) 1080p BluRay x264-DRONES

Recommended Posts

39165424337664095485.png

 

95820247152990001287.jpeg

 

 

Σκηνοθεσία: Gore Verbinski

Σενάριο: Justin Haythe , Justin Haythe

Ηθοποιοί: Dane DeHaan, Jason Isaacs, Mia Goth

Είδος: Drama, Fantasy, Horror

Πρεμιέρα: 16 February 2017 (Greece)

Yπότιτλοι: Eλληνικοί Ξεχωριστοί

Μετάφραση:ΤΣΟΥΤΣΟΥ ΕΛΙΝΑ

 

 

 

 

 

 

http://www.imdb.com/title/tt4731136/
Ένας φιλόδοξος νεαρός εργαζόμενος φτάνει σε ένα ειδυλλιακό αλλά μυστηριώδες «σπα ευεξίας», σε μία γραφική απομακρυσμένη τοποθεσία στις ελβετικές Άλπεις, για να εντοπίσει τον Διευθύνοντα Σύμβουλο της εταιρείας του. Οι εγκαταστάσεις υπόσχονται μία θεραπεία για αυτά που ταλαιπωρούν την σύγχρονη κοινωνία, αλλά δεν είναι όλα όπως φαίνονται, καθώς εκείνος αποκαλύπτει τα τρομακτικά του μυστικά και μάχεται να σώσει την ζωή του και τα λογικά του.

 

 

 

 

 

 

Format : Matroska

Format version : Version 4 / Version 2

File size : 10.9 GiB

Duration : 2h 26mn

Overall bit rate : 10.7 Mbps

Encoded date : UTC 2017-05-26 23:52:10

Writing application : mkvmerge v8.3.0 ('Over the Horizon') 64bit

Writing library : libebml v1.3.1 + libmatroska v1.4.2

DURATION : 02:26:33.419000000

NUMBER_OF_FRAMES : 824383

NUMBER_OF_BYTES : 1658658596

_STATISTICS_WRITING_APP : mkvmerge v8.3.0 ('Over the Horizon') 64bit

_STATISTICS_WRITING_DATE_UTC : 2017-05-26 23:52:10

_STATISTICS_TAGS : BPS DURATION NUMBER_OF_FRAMES NUMBER_OF_BYTES

 

Video

ID : 1

Format : AVC

Format/Info : Advanced Video Codec

Format profile : [email protected].1

Format settings, CABAC : Yes

Format settings, ReFrames : 4 frames

Codec ID : V_MPEG4/ISO/AVC

Duration : 2h 26mn

Bit rate : 9 170 Kbps

Width : 1 920 pixels

Height : 1 080 pixels

Display aspect ratio : 16:9

Frame rate mode : Constant

Frame rate : 23.976 fps

Color space : YUV

Chroma subsampling : 4:2:0

Bit depth : 8 bits

Scan type : Progressive

Bits/(Pixel*Frame) : 0.184

Stream size : 9.17 GiB (84%)

Writing library : x264 core 150 r2829 d1fe6fd

Encoding settings : cabac=1 / ref=4 / deblock=1:0:0 / analyse=0x3:0x133 / me=umh / subme=7 / psy=1 / psy_rd=1.00:0.00 / mixed_ref=1 / me_range=16 / chroma_me=1 / trellis=1 / 8x8dct=1 / cqm=0 / deadzone=21,11 / fast_pskip=0 / chroma_qp_offset=-2 / threads=24 / lookahead_threads=4 / sliced_threads=0 / nr=0 / decimate=1 / interlaced=0 / bluray_compat=0 / constrained_intra=0 / bframes=3 / b_pyramid=2 / b_adapt=1 / b_bias=0 / direct=1 / weightb=1 / open_gop=0 / weightp=2 / keyint=250 / keyint_min=23 / scenecut=40 / intra_refresh=0 / rc_lookahead=40 / rc=2pass / mbtree=1 / bitrate=9170 / ratetol=1.0 / qcomp=0.60 / qpmin=0 / qpmax=69 / qpstep=4 / cplxblur=20.0 / qblur=0.5 / ip_ratio=1.40 / aq=1:1.00

Language : English

Default : Yes

Forced : No

DURATION : 02:26:33.341000000

NUMBER_OF_FRAMES : 210829

NUMBER_OF_BYTES : 10075669944

_STATISTICS_WRITING_APP : mkvmerge v8.3.0 ('Over the Horizon') 64bit

_STATISTICS_WRITING_DATE_UTC : 2017-05-26 23:52:10

_STATISTICS_TAGS : BPS DURATION NUMBER_OF_FRAMES NUMBER_OF_BYTES

 

Audio

ID : 2

Format : DTS

Format/Info : Digital Theater Systems

Format profile : ES

Mode : 16

Format settings, Endianness : Big

Codec ID : A_DTS

Duration : 2h 26mn

Bit rate mode : Constant

Bit rate : 1 509 Kbps

Channel(s) : 6 channels

Channel positions : Front: L C R, Side: L R, LFE

Sampling rate : 48.0 KHz

Bit depth : 24 bits

Compression mode : Lossy

Stream size : 1.54 GiB (14%)

Language : English

Default : Yes

Forced : No

 

 

 

 

https://www.youtube.com/watch?v=vgpdO1_-03M

 

 

WORLDBYTEZ

Kρυφό περιεχόμενο

    Απάντηση σε αυτό το θέμα για να δείτε το κρυφό περιεχόμενο.

Share this post


Link to post
Δημοσίευση σε άλλες σελίδες

Δημιουργήστε ένα λογαριασμό ή συνδεθείτε για να σχολιάσετε

Χρειάζεται να είστε χρήστης για να μπορέσετε να σχολιάσετε

Δημιουργία λογαριασμού

Εγγραφείτε για ένα νέο λογαριασμό στην κοινότητά μας. Είναι εύκολο!

Εγγραφή νέου λογαριασμού

Συνδεθείτε

Έχετε ήδη λογαριασμό? Συνδεθείτε εδώ.

Συνδεθείτε τώρα