Πήγαινε στο περιεχόμενο
admin

I ORIGINS (2014) LIMITED 1080p BluRay X264-AMIABLE

Recommended Posts


22673464976163536770.jpg
79628865878152565723.png

Σκηνοθεσία: Mike Cahill
Σενάριο: Mike Cahill
Ηθοποιοί: Michael Pitt, Steven Yeun, Astrid Bergès-Frisbey, Brit Marling
Είδος: Drama | Sci-Fi
Πρεμιέρα: 19 September 2014 (South Africa)
Yπότιτλοι: Eλληνικοί Ξεχωριστοί
Μετάφραση: FoxyGroup



79568985619438192633.png


http://www.imdb.com/title/tt2884206/

92602808449916415021.png


Ο Ίαν Γκρέι, που σπουδάζει μοριακή βιολογία με εξειδίκευση στην εξέλιξη του ματιού, αφήνει το εργαστήριο για να πάει σε πάρτι. Εκεί έχει μια έντονη επαφή με ένα μυστηριώδες μοντέλο με μάσκα, που δραπετεύει μέσα στη νύχτα. Με μόνη εικόνα τα εκθαμβωτικά της μάτια, την αναζητά και οι δύο τους ερωτεύονται. Οι ιδεολογικές τους διαφορές αρχικά φαίνεται να τρέφουν τη σχέση και οι δυο τους ορκίζονται να περάσουν μια ζωή μαζί. Χρόνια αργότερα, ο Ίαν και η βοηθός του, Κάρεν, κάνουν μια επαναστατική ανακάλυψη με απίστευτες συνέπειες στην κοινωνία όπως τη γνωρίζουμε. Τώρα, ο Ίαν πρέπει να αφήσει τα πάντα πίσω και να ταξιδεύει ανά τον πλανήτη να βρει την αλήθεια πίσω από την ανακάλυψη του και τι μπορεί αυτή να σημαίνει.



















86087038700248359248.png


Format : Matroska
Format version : Version 2
File size : 7.65 GiB
Duration : 1h 47mn
Overall bit rate : 10.2 Mbps
Writing application : mkvmerge v6.6.0 ('The Edge Of The In Between') built on Dec 1 2013 17:55:00
Writing library : libebml v1.3.0 + libmatroska v1.4.1

Video
ID : 1
Format : AVC
Format/Info : Advanced Video Codec
Format profile : [email protected]
Format settings, CABAC : Yes
Format settings, ReFrames : 5 frames
Codec ID : V_MPEG4/ISO/AVC
Duration : 1h 47mn
Bit rate : 8 672 Kbps
Width : 1 920 pixels
Height : 800 pixels
Display aspect ratio : 2.40:1
Frame rate mode : Constant
Frame rate : 23.976 fps
Color space : YUV
Chroma subsampling : 4:2:0
Bit depth : 8 bits
Scan type : Progressive
Bits/(Pixel*Frame) : 0.235
Stream size : 6.37 GiB (83%)
Writing library : x264 core 142 r2491 24e4fed
Encoding settings : cabac=1 / ref=5 / deblock=1:-3:-3 / analyse=0x3:0x113 / me=umh / subme=8 / psy=1 / psy_rd=1.00:0.00 / mixed_ref=1 / me_range=16 / chroma_me=1 / trellis=1 / 8x8dct=1 / cqm=0 / deadzone=21,11 / fast_pskip=1 / chroma_qp_offset=-2 / threads=24 / lookahead_threads=4 / sliced_threads=0 / nr=0 / decimate=1 / interlaced=0 / bluray_compat=0 / constrained_intra=0 / bframes=3 / b_pyramid=2 / b_adapt=2 / b_bias=0 / direct=3 / weightb=1 / open_gop=0 / weightp=2 / keyint=240 / keyint_min=24 / scenecut=40 / intra_refresh=0 / rc_lookahead=50 / rc=2pass / mbtree=1 / bitrate=8672 / ratetol=1.0 / qcomp=0.60 / qpmin=0 / qpmax=69 / qpstep=4 / cplxblur=20.0 / qblur=0.5 / ip_ratio=1.40 / aq=1:1.00
Language : English
Default : Yes
Forced : No

Audio
ID : 2
Format : DTS
Format/Info : Digital Theater Systems
Format profile : ES
Mode : 16
Format settings, Endianness : Big
Codec ID : A_DTS
Duration : 1h 47mn
Bit rate mode : Constant
Bit rate : 1 509 Kbps
Channel count : 6 channels
Channel positions : Front: L C R, Side: L R, LFE
Sampling rate : 48.0 KHz
Bit depth : 24 bits
Compression mode : Lossy
Stream size : 1.13 GiB (15%)
Language : English
Default : Yes
Forced : No






 

34281586889140090645.png


https://www.youtube.com/watch?v=Mk4briOLrTQ









 


Kρυφό περιεχόμενο

    Απάντηση σε αυτό το θέμα για να δείτε το κρυφό περιεχόμενο.

Share this post


Link to post
Δημοσίευση σε άλλες σελίδες

Δημιουργήστε ένα λογαριασμό ή συνδεθείτε για να σχολιάσετε

Χρειάζεται να είστε χρήστης για να μπορέσετε να σχολιάσετε

Δημιουργία λογαριασμού

Εγγραφείτε για ένα νέο λογαριασμό στην κοινότητά μας. Είναι εύκολο!

Εγγραφή νέου λογαριασμού

Συνδεθείτε

Έχετε ήδη λογαριασμό? Συνδεθείτε εδώ.

Συνδεθείτε τώρα