Πήγαινε στο περιεχόμενο
admin

'71 (2014) LIMITED 1080p BluRay X264-AMIABLE

Recommended Posts

59179604392158725861.jpg

 

15308840902688414890.jpeg

 

 

Σκηνοθεσία: Yann Demange

Σενάριο: Gregory Burke

Ηθοποιοί: Jack O'Connell, Sam Reid, Sean Harris

Είδος: Action | Drama | Thriller

Πρεμιέρα: 16 October 2014 (Greece)

Yπότιτλοι: Eλληνικοί Ξεχωριστοί

Μετάφραση: Άγνωστος

Επιμέλεια: TomTsan

 

 

 

[size=4]http://www.imdb.com/title/tt2614684/[/size]
Ένας βρετανός στρατιώτης στην καρδιά των Ταραχών στο Belfast του 1971. Χωρίς να γνωρίζει την πόλη, χωρίς να γνωρίζει το περιβάλλον, απροετοίμαστος και αποπροσανατολισμένος βρίσκεται εν μέσω διασταυρούμενων πυρών. Η μόνη του εικόνα για το διαιρεμένο Belfast είναι ένας χάρτης με δύο χρώματα που του έδειξαν την μέρα εκπαίδευσης: ένα χρώμα για τους "δικούς μας" και ένα χρώμα για τους "άλλους". Πολύ σύντομα όμως, θα διαπιστώσει ότι η βαθιά διαίρεση που ταλανίζει την Ιρλανδία δεν είναι μόνο τα διαφορετικά χρώματα σε ένα χάρτη, αλλά μια καθημερινή διαμάχη σώμα με σώμα μέσα σε κάθε σπίτι, σε κάθε γειτονιά, με οδοφράγματα, φωτιές, πέτρες και όπλα. Εγκαταλελειμμένος από τη μονάδα του, θα περιπλανηθεί χαμένος σε γειτονιές εχθρικές αλλά και φιλοβρετανικές. Μέσα σ' ένα εξαντλητικό, ανελέητο κυνηγητό, ανάμεσα σε στενά δρομάκια και άγνωστα σπίτια, θα βρεθεί αντιμέτωπος με ανθρώπους από κάθε πλευρά, με απρόβλεπτες αντιδράσεις.

 

Όπως ακριβώς ο ελλειπτικός τίτλος του, το εξαιρετικό φιλμ του Yann Demange, αναφέρεται σε κάτι απολύτως συγκεκριμένο - το έτος 1971 και τις Ταραχές που ήταν εν εξελίξει - αλλά ταυτόχρονα θα μπορούσε να αποτυπώνει οποιαδήποτε εμπόλεμη ζώνη. Το πλαίσιο εν προκειμένω είναι η διαμάχη καθολικών και προτεσταντών ιρλανδών, κι ανάμεσά τους ένας άθεος βρετανός• θα μπορούσε όμως να είναι η ιστορία οποιουδήποτε τρίτου που εμπλέκεται σε μια πολεμική διαμάχη που δεν τον αφορά άμεσα. Χωρίς σαφή εικόνα για το ποιος είναι φίλος και ποιος εχθρός, και χωρίς να γνωρίζει στην πραγματικότητα ποιον προστατεύει από ποιον, συνειδητοποιεί πολύ σύντομα τη μοναδική βεβαιότητα κάθε εμπόλεμης ζώνης: ανεξάρτητα από συμφέροντα και πολιτικές, σημασία έχει να επιβιώσεις.

 

 

 

Format : Matroska

Format version : Version 2

File size : 7.64 GiB

Duration : 1h 39mn

Overall bit rate : 11.0 Mbps

Writing application : mkvmerge v6.6.0 ('The Edge Of The In Between') built on Dec 1 2013 17:55:00

Writing library : libebml v1.3.0 + libmatroska v1.4.1

 

Video

ID : 1

Format : AVC

Format/Info : Advanced Video Codec

Format profile : [email protected].1

Format settings, CABAC : Yes

Format settings, ReFrames : 5 frames

Codec ID : V_MPEG4/ISO/AVC

Duration : 1h 39mn

Bit rate : 9 509 Kbps

Width : 1 920 pixels

Height : 808 pixels

Display aspect ratio : 2.40:1

Frame rate mode : Constant

Frame rate : 23.976 fps

Color space : YUV

Chroma subsampling : 4:2:0

Bit depth : 8 bits

Scan type : Progressive

Bits/(Pixel*Frame) : 0.256

Stream size : 6.44 GiB (84%)

Writing library : x264 core 144 r2525 40bb568

Encoding settings : cabac=1 / ref=5 / deblock=1:-3:-3 / analyse=0x3:0x113 / me=umh / subme=8 / psy=1 / psy_rd=1.00:0.00 / mixed_ref=1 / me_range=16 / chroma_me=1 / trellis=1 / 8x8dct=1 / cqm=0 / deadzone=21,11 / fast_pskip=1 / chroma_qp_offset=-2 / threads=6 / lookahead_threads=1 / sliced_threads=0 / nr=0 / decimate=1 / interlaced=0 / bluray_compat=0 / constrained_intra=0 / bframes=3 / b_pyramid=2 / b_adapt=2 / b_bias=0 / direct=3 / weightb=1 / open_gop=0 / weightp=2 / keyint=240 / keyint_min=24 / scenecut=40 / intra_refresh=0 / rc_lookahead=50 / rc=2pass / mbtree=1 / bitrate=9509 / ratetol=1.0 / qcomp=0.60 / qpmin=0 / qpmax=69 / qpstep=4 / cplxblur=20.0 / qblur=0.5 / ip_ratio=1.40 / aq=1:1.00

Language : English

Default : Yes

Forced : No

 

Audio

ID : 2

Format : DTS

Format/Info : Digital Theater Systems

Mode : 16

Format settings, Endianness : Big

Codec ID : A_DTS

Duration : 1h 39mn

Bit rate mode : Constant

Bit rate : 1 509 Kbps

Channel count : 6 channels

Channel positions : Front: L C R, Side: L R, LFE

Sampling rate : 48.0 KHz

Bit depth : 24 bits

Compression mode : Lossy

Stream size : 1.05 GiB (14%)

Language : English

Default : Yes

Forced

 

 

 

https://www.youtube.com/watch?v=J-BaKfl1Ms4

 

 

 

WORLDBYTEZ

Kρυφό περιεχόμενο

    Απάντηση σε αυτό το θέμα για να δείτε το κρυφό περιεχόμενο.

Share this post


Link to post
Δημοσίευση σε άλλες σελίδες

Δημιουργήστε ένα λογαριασμό ή συνδεθείτε για να σχολιάσετε

Χρειάζεται να είστε χρήστης για να μπορέσετε να σχολιάσετε

Δημιουργία λογαριασμού

Εγγραφείτε για ένα νέο λογαριασμό στην κοινότητά μας. Είναι εύκολο!

Εγγραφή νέου λογαριασμού

Συνδεθείτε

Έχετε ήδη λογαριασμό? Συνδεθείτε εδώ.

Συνδεθείτε τώρα