Πήγαινε στο περιεχόμενο
Lusion

BAHUBALI 2: THE CONCLUSION (2017) 1080p BluRay x264-ROVERS

Recommended Posts

BAHUBALI 2: THE CONCLUSION (2017)

Ξεχωριστοί Ελληνικοί Υπότιτλοι

 

85753086320624632802.jpg

 

69274231495498598683.jpeg

 

 

Είδος: Action, Adventure, Drama

Σκηνοθεσία: S.S. Rajamouli

Σενάριο: Vijayendra Prasad (story), S.S. Rajamouli (screenplay)

Ηθοποιοί: Prabhas, Rana Daggubati, Anushka Shetty

Πρεμιέρα: 28 April 2017 (India)

Yπότιτλοι: Ελληνικοί Ξεχωριστοί

Μετάφραση: Oneiro

 

 

 

56651344381393665136.png

 

http://www.imdb.com/title/tt4849438/?ref_=fn_al_tt_1
ΥΠΟΘΕΣΗ

Αφού έχει εξολοθρεύσει τους Καλακέγιας, ο Μαχουμπαλί ανακηρύσσεται μελλοντικός βασιλιάς και ο Μπαλιά Ντεβά διοικητής του στρατού. Πριν τη στέψη, η βασιλομήτωρ Σιβαγκαμί ξεκινάει την αναζήτηση νύφης για τον Μαχουμπαλί, στέλνοντας μαζί με τον Κατάπα σε μια περιοδεία ανά τη χώρα, για να αισθανθούν από κοντά τους υπηκόους.

 

 

 

Media Info

 

 

General

Format : Matroska

Format version : Version 4 / Version 2

File size : 10.9 GiB

Duration : 2 h 46 min

Overall bit rate : 9 381 kb/s

Encoded date : UTC 2017-07-31 00:25:23

Writing application : mkvmerge v8.3.0 ('Over the Horizon') 64bit

Writing library : libebml v1.3.1 + libmatroska v1.4.2

 

Video

ID : 1

Format : AVC

Format/Info : Advanced Video Codec

Format profile : [email protected].1

Format settings, CABAC : Yes

Format settings, ReFrames : 5 frames

Codec ID : V_MPEG4/ISO/AVC

Duration : 2 h 46 min

Bit rate : 8 741 kb/s

Width : 1 920 pixels

Height : 808 pixels

Display aspect ratio : 2.40:1

Frame rate mode : Constant

Frame rate : 24.000 FPS

Color space : YUV

Chroma subsampling : 4:2:0

Bit depth : 8 bits

Scan type : Progressive

Bits/(Pixel*Frame) : 0.235

Stream size : 10.2 GiB (93%)

Writing library : x264 core 150 r2833 df79067

Encoding settings : cabac=1 / ref=5 / deblock=1:0:0 / analyse=0x3:0x133 / me=umh / subme=7 / psy=1 / psy_rd=1.00:0.00 / mixed_ref=1 / me_range=16 / chroma_me=1 / trellis=1 / 8x8dct=1 / cqm=0 / deadzone=21,11 / fast_pskip=0 / chroma_qp_offset=-2 / threads=25 / lookahead_threads=4 / sliced_threads=0 / nr=0 / decimate=1 / interlaced=0 / bluray_compat=0 / constrained_intra=0 / bframes=3 / b_pyramid=2 / b_adapt=1 / b_bias=0 / direct=1 / weightb=1 / open_gop=0 / weightp=2 / keyint=250 / keyint_min=23 / scenecut=40 / intra_refresh=0 / rc_lookahead=40 / rc=2pass / mbtree=1 / bitrate=8741 / ratetol=1.0 / qcomp=0.60 / qpmin=0 / qpmax=69 / qpstep=4 / cplxblur=20.0 / qblur=0.5 / ip_ratio=1.40 / aq=1:1.00

Language : Hindi

Default : Yes

Forced : No

 

Audio

ID : 2

Format : AC-3

Format/Info : Audio Coding 3

Mode extension : CM (complete main)

Format settings, Endianness : Big

Codec ID : A_AC3

Duration : 2 h 46 min

Bit rate mode : Constant

Bit rate : 640 kb/s

Channel(s) : 6 channels

Channel positions : Front: L C R, Side: L R, LFE

Sampling rate : 48.0 kHz

Frame rate : 31.250 FPS (1536 spf)

Bit depth : 16 bits

Compression mode : Lossy

Stream size : 764 MiB (7%)

Language : Hindi

Default : Yes

Forced : No

 

Text

ID : 3

Format : UTF-8

Codec ID : S_TEXT/UTF8

Codec ID/Info : UTF-8 Plain Text

Duration : 2 h 40 min

Bit rate : 42 b/s

Count of elements : 1531

Stream size : 50.5 KiB (0%)

Title : English-Forced

Language : English

Default : Yes

Forced : Yes

 

 

 

 

https://www.youtube.com/watch?v=G62HrubdD6o

 

 

65503385509476962249.png

Kρυφό περιεχόμενο

    Απάντηση σε αυτό το θέμα για να δείτε το κρυφό περιεχόμενο.

Share this post


Link to post
Δημοσίευση σε άλλες σελίδες

Δημιουργήστε ένα λογαριασμό ή συνδεθείτε για να σχολιάσετε

Χρειάζεται να είστε χρήστης για να μπορέσετε να σχολιάσετε

Δημιουργία λογαριασμού

Εγγραφείτε για ένα νέο λογαριασμό στην κοινότητά μας. Είναι εύκολο!

Εγγραφή νέου λογαριασμού

Συνδεθείτε

Έχετε ήδη λογαριασμό? Συνδεθείτε εδώ.

Συνδεθείτε τώρα