Πήγαινε στο περιεχόμενο
admin

THE ESCORT (2016) 1080p BluRay x264-GUACAMOLE

Recommended Posts

THE ESCORT (2015)

Ξεχωριστοί Ελληνικοί Υπότιτλοι

 

75734048705748099867.jpg

 

83325167876442606739.jpg

 

 

Είδος: Comedy, Drama, Romance

Σκηνοθεσία: Will Slocombe

Σενάριο: Michael Doneger, Brandon A. Cohen

Ηθοποιοί: Lyndsy Fonseca, Michael Doneger, Tommy Dewey

Πρεμιέρα: 28 July 2016 (USA)

Yπότιτλοι: Ελληνικοί Ξεχωριστοί

Μετάφραση: vanzel78

 

 

 

78167258268745496963.png

 

 

 

http://www.imdb.com/title/tt3793788/
 

ΥΠΟΘΕΣΗ

Το «The escort» αποκρυπτογραφεί το επάγγελμα των γυναικών που συνοδεύουν κυρίους με το αζημίωτο. Η υπόθεση έχει να κάνει με ένα εθισμένο στο σεξ δημοσιογράφο, που ψάχνει εναγωνίως μια καλή ιστορία. Μπαίνει λοιπόν στον κόσμο των συνοδών πολυτελείας και αρχίζει να παρακολουθεί μια κοπέλα που κάνει αυτό το επάγγελμα, παρόλο ότι έχει σπουδάσει στο Στάνφορντ…

 

 

 

Media Info

 

 

General

Format : Matroska

Format version : Version 4 / Version 2

File size : 6.55 GiB

Duration : 1 h 27 min

Overall bit rate : 10.7 Mb/s

Encoded date : UTC 2017-01-29 07:45:46

Writing application : mkvmerge v9.5.0 ('Quiet Fire') 64bit

Writing library : libebml v1.3.4 + libmatroska v1.4.5

 

Video

ID : 1

Format : AVC

Format/Info : Advanced Video Codec

Format profile : [email protected].1

Format settings, CABAC : Yes

Format settings, ReFrames : 4 frames

Codec ID : V_MPEG4/ISO/AVC

Duration : 1 h 27 min

Bit rate : 9 217 kb/s

Width : 1 920 pixels

Height : 1 080 pixels

Display aspect ratio : 16:9

Frame rate mode : Constant

Frame rate : 23.976 (24000/1001) FPS

Color space : YUV

Chroma subsampling : 4:2:0

Bit depth : 8 bits

Scan type : Progressive

Bits/(Pixel*Frame) : 0.185

Stream size : 5.63 GiB (86%)

Writing library : x264 core 148 r2744 b97ae06

Encoding settings : cabac=1 / ref=4 / deblock=1:0:0 / analyse=0x3:0x113 / me=umh / subme=7 / psy=1 / psy_rd=1.00:0.00 / mixed_ref=1 / me_range=16 / chroma_me=1 / trellis=1 / 8x8dct=1 / cqm=0 / deadzone=21,11 / fast_pskip=0 / chroma_qp_offset=-2 / threads=12 / lookahead_threads=2 / sliced_threads=0 / nr=0 / decimate=1 / interlaced=0 / bluray_compat=0 / constrained_intra=0 / bframes=3 / b_pyramid=2 / b_adapt=1 / b_bias=0 / direct=1 / weightb=1 / open_gop=0 / weightp=2 / keyint=250 / keyint_min=23 / scenecut=40 / intra_refresh=0 / rc_lookahead=40 / rc=2pass / mbtree=1 / bitrate=9217 / ratetol=1.0 / qcomp=0.60 / qpmin=0 / qpmax=69 / qpstep=4 / cplxblur=20.0 / qblur=0.5 / ip_ratio=1.40 / aq=1:1.00

Default : Yes

Forced : No

 

Audio

ID : 2

Format : DTS

Format/Info : Digital Theater Systems

Mode : 16

Format settings, Endianness : Big

Codec ID : A_DTS

Duration : 1 h 27 min

Bit rate mode : Constant

Bit rate : 1 509 kb/s

Channel(s) : 6 channels

Channel positions : Front: L C R, Side: L R, LFE

Sampling rate : 48.0 kHz

Frame rate : 93.750 FPS (512 spf)

Bit depth : 24 bits

Compression mode : Lossy

Stream size : 944 MiB (14%)

Language : English

Default : Yes

Forced : No

 

 

 

 

https://www.youtube.com/watch?v=O0Vvy5RI8WU

 

 

74342477176012857023.png

Kρυφό περιεχόμενο

    Απάντηση σε αυτό το θέμα για να δείτε το κρυφό περιεχόμενο.

Share this post


Link to post
Δημοσίευση σε άλλες σελίδες

Δημιουργήστε ένα λογαριασμό ή συνδεθείτε για να σχολιάσετε

Χρειάζεται να είστε χρήστης για να μπορέσετε να σχολιάσετε

Δημιουργία λογαριασμού

Εγγραφείτε για ένα νέο λογαριασμό στην κοινότητά μας. Είναι εύκολο!

Εγγραφή νέου λογαριασμού

Συνδεθείτε

Έχετε ήδη λογαριασμό? Συνδεθείτε εδώ.

Συνδεθείτε τώρα