Πήγαινε στο περιεχόμενο
Gamato
Αναζήτηση σε...
  • More options...
Βρείτε αποτελέσματα που ...
Βρείτε αποτελέσματα σε...
  • GAMATO

    «GAMATO The Greek Community»

    Το GAMATO είναι ένα υπέροχο λειτουργικά σχεδιασμένο Website με πλούσιο και ενεργό υλικό κατεβάσματος ανά κατηγορία. Χρειάζεται μία απλή εγγραφή με ένα email σας και να είστε λίγο εξοικειωμένοι με τη διαδικασία κατεβάσματος μέσω filehosting services WORLDBYTEZ. See more...

  • WORLDBYTEZ

    Worldbytez είναι ένα υπέροχο λειτουργικά σχεδιασμένος filehosting με πλούσιο και ενεργό υλικό, Χρειάζεται μία απλή εγγραφή με ένα email σας και να είστε λίγο εξοικειωμένοι με τη διαδικασία κατεβάσματος μέσω filehosting services WORLDBYTEZ. See more...

  • GAMATO

    «GAMATO The Greek Community»

    Το GAMATO είναι ένα υπέροχο λειτουργικά σχεδιασμένο Website με πλούσιο και ενεργό υλικό κατεβάσματος ανά κατηγορία. Χρειάζεται μία απλή εγγραφή με ένα email σας και να είστε λίγο εξοικειωμένοι με τη διαδικασία κατεβάσματος μέσω filehosting services WORLDBYTEZ. See more...

  • WORLDBYTEZ

    Worldbytez είναι ένα υπέροχο λειτουργικά σχεδιασμένος filehosting με πλούσιο και ενεργό υλικό, Χρειάζεται μία απλή εγγραφή με ένα email σας και να είστε λίγο εξοικειωμένοι με τη διαδικασία κατεβάσματος μέσω filehosting services WORLDBYTEZ. See more...

Shootbox

ΠΩΣ ΚΑΤΕΒΑΖΟΥΜΕ VIDEO VIDEO
ΓΙΝΕ ΑΜΕΣΑ PREMIUMΚΑΙ ΚΑΤΕΒΑΣΤΕ ΑΡΧΕΙΑ ΑΜΕΣΑ ΜΕ ΤΟΝ IDM
ΑΠΑΓΟΡΕΥΕΤΑΙ ΟΠΟΙΑΔΗΠΟΤΕ ΒΟΗΘΕΙΑ ΣΤΟ CHAT ΥΠΑΡΧΕΙ SECTION ΒΟΗΘΕΙΑΣ

Load More
Δεν έχετε άδεια για συνομιλία παρακαλούμε εγγραφείτε.

NEWS

Tα θεματα του φορουμ εχουν λινκ αποκλειστικα στο Worldbytez

Eκμεταλλευτειτε τις νεες χαμηλες τιμες για premium συνδρομες για να εχετε απεριοριστο downloading

Lusion

THE EXCEPTION (2016) LIMITED 720p BluRay x264-DRONES


Recommended Posts

THE EXCEPTION (2016)

Ξεχωριστοί Ελληνικοί Υπότιτλοι

 

89296016135308639137.jpg

 

21675477650950523297.jpeg

 

 

Είδος ταινίας: Drama, Romance, War

Σκηνοθεσία: David Leveaux

Σενάριο: Simon Burke, Alan Judd

Ηθοποιοί: Lily James, Jai Courtney, Christopher Plummer

Πρεμιέρα (US): 02/06/17

Μετάφραση: ShitHigh&Watch

 

 

 

56651344381393665136.png

 

Kρυφό περιεχόμενο

    Απάντηση σε αυτό το θέμα για να δείτε το κρυφό περιεχόμενο.
ΥΠΟΘΕΣΗ

Ολλανδία, 1940. Μετά την εισβολή στη χώρα, οι ναζί έρχονται σε επαφή με τον έσχατο κάιζερ, τον Βίλχελμ τον Β`, ο οποίος βρίσκεται εκεί εξόριστος από το 1918. Στο πλάι του τοποθετούν έναν νεαρό αξιωματικό, έχοντας τον κίνδυνο να μη χρησιμοποιηθεί ο κάιζερ από τους Βρετανούς, αποστατώντας εκεί. Οι Βρετανοί, με τη σειρά τους, και με τη βοήθεια της ολλανδικής αντίστασης, τοποθετούν ως υπηρέτρια μια νεαρή Εβραία για να βρίσκονται κοντά στον γερμανό μονάρχη. Αλλά η νεαρή κοπέλα θα ερωτευτεί τον γερμανό αξιωματικό και η κατάσταση θα ξεφύγει από τον έλεγχο.

 

 

 

Media Info

 

 

General

Format : Matroska

Format version : Version 4 / Version 2

File size : 5.46 GiB

Duration : 1 h 47 min

Overall bit rate : 7 276 kb/s

Encoded date : UTC 2017-08-03 01:31:04

Writing application : mkvmerge v8.3.0 ('Over the Horizon') 64bit

Writing library : libebml v1.3.1 + libmatroska v1.4.2

 

Video

ID : 1

Format : AVC

Format/Info : Advanced Video Codec

Format profile : [email protected].1

Format settings, CABAC : Yes

Format settings, ReFrames : 5 frames

Codec ID : V_MPEG4/ISO/AVC

Duration : 1 h 47 min

Bit rate : 5 767 kb/s

Width : 1 280 pixels

Height : 536 pixels

Display aspect ratio : 2.40:1

Frame rate mode : Constant

Frame rate : 23.976 FPS

Color space : YUV

Chroma subsampling : 4:2:0

Bit depth : 8 bits

Scan type : Progressive

Bits/(Pixel*Frame) : 0.351

Stream size : 4.33 GiB (79%)

Writing library : x264 core 150 r2833 df79067

Encoding settings : cabac=1 / ref=5 / deblock=1:0:0 / analyse=0x3:0x133 / me=umh / subme=7 / psy=1 / psy_rd=1.00:0.00 / mixed_ref=1 / me_range=16 / chroma_me=1 / trellis=1 / 8x8dct=1 / cqm=0 / deadzone=21,11 / fast_pskip=0 / chroma_qp_offset=-2 / threads=17 / lookahead_threads=2 / sliced_threads=0 / nr=0 / decimate=1 / interlaced=0 / bluray_compat=0 / constrained_intra=0 / bframes=3 / b_pyramid=2 / b_adapt=1 / b_bias=0 / direct=1 / weightb=1 / open_gop=0 / weightp=2 / keyint=250 / keyint_min=23 / scenecut=40 / intra_refresh=0 / rc_lookahead=40 / rc=2pass / mbtree=1 / bitrate=5767 / ratetol=1.0 / qcomp=0.60 / qpmin=0 / qpmax=69 / qpstep=4 / cplxblur=20.0 / qblur=0.5 / ip_ratio=1.40 / aq=1:1.00

Language : English

Default : Yes

Forced : No

 

Audio

ID : 2

Format : DTS

Format/Info : Digital Theater Systems

Mode : 16

Format settings, Endianness : Big

Codec ID : A_DTS

Duration : 1 h 47 min

Bit rate mode : Constant

Bit rate : 1 509 kb/s

Channel(s) : 6 channels

Channel positions : Front: L C R, Side: L R, LFE

Sampling rate : 48.0 kHz

Frame rate : 93.750 FPS (512 spf)

Bit depth : 24 bits

Compression mode : Lossy

Stream size : 1.13 GiB (21%)

Language : English

Default : Yes

Forced : No

 

 

 

 

https://www.youtube.com/watch?v=iW7jAasWRAI

 

 

65503385509476962249.png

Kρυφό περιεχόμενο

    Απάντηση σε αυτό το θέμα για να δείτε το κρυφό περιεχόμενο.

Share this post


Link to post
Δημοσίευση σε άλλες σελίδες

Δημιουργήστε ένα λογαριασμό ή συνδεθείτε για να σχολιάσετε

Χρειάζεται να είστε χρήστης για να μπορέσετε να σχολιάσετε

Δημιουργία λογαριασμού

Εγγραφείτε για ένα νέο λογαριασμό στην κοινότητά μας. Είναι εύκολο!

Εγγραφή νέου λογαριασμού

Συνδεθείτε

Έχετε ήδη λογαριασμό? Συνδεθείτε εδώ.

Συνδεθείτε τώρα

×