Πήγαινε στο περιεχόμενο
admin

THE GUARDIANS (2017) RUSSIAN 1080p BluRay x264 DTS-FGT

Recommended Posts

THE GUARDIANS (2017)

Ξεχωριστοί Ελληνικοί Υπότιτλοι

 

55804507034358302199.jpg

 

68884828651644245041.jpg

 

 

Είδος:Action, Sci-Fi

Σκηνοθεσία: Sarik Andreasyan

Σενάριο: Andrey Gavrilov (screenplay), Sarik Andreasyan (story)

Ηθοποιοί: Anton Pampushnyy, Sanjar Madi, Sebastien Sisak

Πρεμιέρα: 23 February 2017 (Russia)

Yπότιτλοι: Ελληνικοί Ξεχωριστοί

Μετάφραση: nasos_mik

 

 

 

56651344381393665136.png

 

http://www.imdb.com/title/tt4600952/
 

ΥΠΟΘΕΣΗ

Κατά τη διάρκεια του Ψυχρού Πολέμου, μια μυστική οργάνωση που ονομάζεται "Patriot" δημιούργησε μια ομάδα σοβιετικών υπερηρώων, αλλάζοντας και αυξάνοντας το DNA των τεσσάρων ατόμων, προκειμένου να υπερασπιστούν την πατρίδα από υπερφυσικές απειλές. Η ομάδα απαρτίζεται από εκπροσώπους των διαφόρων εθνοτήτων της Σοβιετικής Ένωσης , ενώ καθένας τους ζει κρύβοντας την πραγματική του ταυτότητα. Σε δύσκολους καιρούς όμως συγκεντρώνονται για να υπερασπιστούν την πατρίδα τους.

 

 

 

Media Info

 

 

General

Format : Matroska

Format version : Version 4 / Version 2

File size : 7.84 GiB

Duration : 1 h 28 min

Overall bit rate : 12.6 Mb/s

Movie name : The.Guardians.2017.RUSSIAN.1080p.BluRay.x264.DTS-FGT

Encoded date : UTC 2017-04-21 12:28:33

Writing application : mkvmerge v9.9.0 ('Pick Up') 64bit

Writing library : libebml v1.3.4 + libmatroska v1.4.5

Cover : Yes

Attachments : small_cover.jpg / small_cover_land.jpg / cover.jpg / cover_land.jpg

 

Video

ID : 1

Format : AVC

Format/Info : Advanced Video Codec

Format profile : [email protected]

Format settings : CABAC / 5 Ref Frames

Format settings, CABAC : Yes

Format settings, RefFrames : 5 frames

Codec ID : V_MPEG4/ISO/AVC

Duration : 1 h 28 min

Bit rate : 10.9 Mb/s

Width : 1 920 pixels

Height : 804 pixels

Display aspect ratio : 2.40:1

Frame rate mode : Constant

Frame rate : 24.000 FPS

Color space : YUV

Chroma subsampling : 4:2:0

Bit depth : 8 bits

Scan type : Progressive

Bits/(Pixel*Frame) : 0.293

Stream size : 6.75 GiB (86%)

Title : The.Guardians.2017.RUSSIAN.1080p.BluRay.x264.DTS-FGT

Writing library : x264 core 148 r2744 b97ae06

Encoding settings : cabac=1 / ref=5 / deblock=1:-3:-3 / analyse=0x3:0x133 / me=umh / subme=11 / psy=1 / psy_rd=1.00:0.00 / mixed_ref=1 / me_range=48 / chroma_me=1 / trellis=2 / 8x8dct=1 / cqm=0 / deadzone=21,11 / fast_pskip=0 / chroma_qp_offset=-2 / threads=24 / lookahead_threads=4 / sliced_threads=0 / nr=0 / decimate=1 / interlaced=0 / bluray_compat=0 / constrained_intra=0 / bframes=9 / b_pyramid=2 / b_adapt=2 / b_bias=0 / direct=1 / weightb=1 / open_gop=0 / weightp=2 / keyint=240 / keyint_min=24 / scenecut=40 / intra_refresh=0 / rc_lookahead=60 / rc=crf / mbtree=0 / crf=17.3 / qcomp=0.60 / qpmin=0 / qpmax=69 / qpstep=4 / vbv_maxrate=50000 / vbv_bufsize=62500 / crf_max=0.0 / nal_hrd=none / filler=0 / ip_ratio=1.35 / pb_ratio=1.25 / aq=3:0.80

Language : English

Default : Yes

Forced : No

 

Audio

ID : 2

Format : DTS

Format/Info : Digital Theater Systems

Mode : 16

Format settings, Endianness : Big

Codec ID : A_DTS

Duration : 1 h 28 min

Bit rate mode : Constant

Bit rate : 1 509 kb/s

Channel(s) : 6 channels

Channel positions : Front: L C R, Side: L R, LFE

Sampling rate : 48.0 kHz

Frame rate : 93.750 FPS (512 SPF)

Bit depth : 24 bits

Compression mode : Lossy

Stream size : 960 MiB (12%)

Title : The.Guardians.2017.RUSSIAN.1080p.BluRay.x264.DTS-FGT

Language : Russian

Default : Yes

Forced : No

 

Text

ID : 3

Format : UTF-8

Codec ID : S_TEXT/UTF8

Codec ID/Info : UTF-8 Plain Text

Language : English

Default : Yes

Forced : No

 

 

 

 

https://www.youtube.com/watch?v=jIWPEnH29z4

 

 

65503385509476962249.png

Kρυφό περιεχόμενο

    Απάντηση σε αυτό το θέμα για να δείτε το κρυφό περιεχόμενο.

Share this post


Link to post
Δημοσίευση σε άλλες σελίδες

Δημιουργήστε ένα λογαριασμό ή συνδεθείτε για να σχολιάσετε

Χρειάζεται να είστε χρήστης για να μπορέσετε να σχολιάσετε

Δημιουργία λογαριασμού

Εγγραφείτε για ένα νέο λογαριασμό στην κοινότητά μας. Είναι εύκολο!

Εγγραφή νέου λογαριασμού

Συνδεθείτε

Έχετε ήδη λογαριασμό? Συνδεθείτε εδώ.

Συνδεθείτε τώρα