Πήγαινε στο περιεχόμενο
Lusion

WISH FOR CHRISTMAS (2016) 1080p BluRay x264-GUACAMOLE

Recommended Posts

WISH FOR CHRISTMAS (2016)

Ξεχωριστοί Ελληνικοί Υπότιτλοι

 

36601032320014204120.jpg

 

85025722564853186914.jpeg

 

 

Είδος: Drama, Family

Σκηνοθεσία: ohn K.D. Graham

Σενάριο: Alexandra Boylan, John K.D. Graham

Ηθοποιοί: Joey Lawrence, Leigh-Allyn Baker, Anna Fricks

Πρεμιέρα : 1 November 2016 (USA)

Yπότιτλοι: Ελληνικοί Ξεχωριστοί

Μετάφραση: JACK SPARROW

 

 

78167258268745496963.png

http://www.imdb.com/title/tt4700190/
ΥΠΟΘΕΣΗ

Μια μαθήτρια γυμνασίου θα κάνει μια ευχή σχετικά με τους γονείς της και την χαμένη τους πίστη....

 

 

Media Info

 

 

General

Format : Matroska

Format version : Version 4 / Version 2

File size : 6.56 GiB

Duration : 1 h 36 min

Overall bit rate : 9 772 kb/s

Encoded date : UTC 2017-11-26 06:48:16

Writing application : mkvmerge v17.0.0 ('Be Ur Friend') 64-bit

Writing library : libebml v1.3.5 + libmatroska v1.4.8

 

Video

ID : 1

Format : AVC

Format/Info : Advanced Video Codec

Format profile : [email protected].1

Format settings : CABAC / 5 Ref Frames

Format settings, CABAC : Yes

Format settings, RefFrames : 5 frames

Codec ID : V_MPEG4/ISO/AVC

Duration : 1 h 36 min

Bit rate : 8 266 kb/s

Width : 1 920 pixels

Height : 808 pixels

Display aspect ratio : 2.40:1

Frame rate mode : Constant

Frame rate : 23.976 (24000/1001) FPS

Color space : YUV

Chroma subsampling : 4:2:0

Bit depth : 8 bits

Scan type : Progressive

Bits/(Pixel*Frame) : 0.222

Stream size : 5.54 GiB (85%)

Writing library : x264 core 152 r2851 ba24899

Encoding settings : cabac=1 / ref=5 / deblock=1:0:0 / analyse=0x3:0x113 / me=umh / subme=8 / psy=1 / psy_rd=1.00:0.00 / mixed_ref=1 / me_range=16 / chroma_me=1 / trellis=2 / 8x8dct=1 / cqm=0 / deadzone=21,11 / fast_pskip=0 / chroma_qp_offset=-2 / threads=12 / lookahead_threads=2 / sliced_threads=0 / nr=0 / decimate=1 / interlaced=0 / bluray_compat=0 / constrained_intra=0 / bframes=3 / b_pyramid=2 / b_adapt=1 / b_bias=0 / direct=1 / weightb=1 / open_gop=0 / weightp=2 / keyint=250 / keyint_min=23 / scenecut=40 / intra_refresh=0 / rc_lookahead=50 / rc=2pass / mbtree=1 / bitrate=8266 / ratetol=1.0 / qcomp=0.60 / qpmin=0 / qpmax=69 / qpstep=4 / cplxblur=20.0 / qblur=0.5 / ip_ratio=1.40 / aq=1:1.00

Default : Yes

Forced : No

 

Audio

ID : 2

Format : DTS

Format/Info : Digital Theater Systems

Mode : 16

Format settings, Endianness : Big

Codec ID : A_DTS

Duration : 1 h 36 min

Bit rate mode : Constant

Bit rate : 1 509 kb/s

Channel(s) : 6 channels

Channel positions : Front: L C R, Side: L R, LFE

Sampling rate : 48.0 kHz

Frame rate : 93.750 FPS (512 SPF)

Bit depth : 24 bits

Compression mode : Lossy

Stream size : 1.01 GiB (15%)

Language : English

Default : Yes

Forced : No

 

 

 

 

https://www.youtube.com/watch?v=g6QXsLSICFk

 

 

77359781269133097508.png

Kρυφό περιεχόμενο

    Απάντηση σε αυτό το θέμα για να δείτε το κρυφό περιεχόμενο.

Share this post


Link to post
Δημοσίευση σε άλλες σελίδες

Δημιουργήστε ένα λογαριασμό ή συνδεθείτε για να σχολιάσετε

Χρειάζεται να είστε χρήστης για να μπορέσετε να σχολιάσετε

Δημιουργία λογαριασμού

Εγγραφείτε για ένα νέο λογαριασμό στην κοινότητά μας. Είναι εύκολο!

Εγγραφή νέου λογαριασμού

Συνδεθείτε

Έχετε ήδη λογαριασμό? Συνδεθείτε εδώ.

Συνδεθείτε τώρα
    • 3 Posts
    • 92 Views
    • 2 Posts
    • 82 Views
    • 6 Posts
    • 88 Views
    • 1 Posts
    • 10 Views
    • 4 Posts
    • 108 Views