Πήγαινε στο περιεχόμενο
admin

TRANSFORMERS THE LAST KNIGHT (2017) 720p BluRay x264 DD5.1-HDC

Recommended Posts

76187627182191601285.jpg

 

56753076496775393863.jpg

 

 

Σκηνοθεσία: Michael Bay

Σενάριο: Art Marcum, Matt Holloway, Ken Nolan, Akiva Goldsman

Ηθοποιοί: Mark Wahlberg, Gemma Chan, Anthony Hopkins, Laura Haddock

Είδος: Action, Adventure, Sci-Fi

Πρεμιέρα: 22 June 2017 (Greece)

Yπότιτλοι: Eλληνικοί Ξεχωριστοί

 

 

 

 

http://www.imdb.com/title/tt3371366/
Οι άνθρωποι και τα Transformers βρίσκονται σε πόλεμο, με τον Όπτιμους Πράιμ να αγνοείται. Το κλειδί για τη σωτηρία του μέλλοντος της ανθρωπότητας βρίσκεται θαμμένο στα μυστικά του παρελθόντος, στην άγνωστη ιστορία των Transformers στη Γη. Έτσι, η σωτηρία του κόσμου φαίνεται να εξαρτάται από μια ιδιότυπη συμμαχία ανάμεσα στον Κέιντ Γιέγκερ , τον Μπάμπλμπι, έναν Άγγλο λόρδο και μια καθηγήτρια του Πανεπιστημίου της Οξφόρδης. Έρχεται μια στιγμή στη ζωή του καθενός μας που καλούμαστε να κάνουμε τη διαφορά και τότε οι κυνηγημένοι γίνονται ήρωες, οι ήρωες κακοί και το μοναδικό ερώτημα που απαιτεί απάντηση να είναι: Ποιος από τους δύο κόσμους θα επιβιώσει, ο δικός τους ή ο δικός μας.

 

 

 

 

 

 

Format : Matroska

Format version : Version 2

File size : 7.74 GiB

Duration : 2h 34mn

Overall bit rate : 7 168 Kbps

Movie name : T T L K 2017 720p Bluray X264 DD5 1

Encoded date : UTC 2017-09-14 00:58:15

Writing application : mkvmerge v5.8.0 ('No Sleep / Pillow') built on Sep 2 2012 15:37:04

Writing library : libebml v1.2.3 + libmatroska v1.3.0

DESCRIPTION : {name}

 

Video

ID : 1

Format : AVC

Format/Info : Advanced Video Codec

Format profile : [email protected].1

Format settings, CABAC : Yes

Format settings, ReFrames : 9 frames

Muxing mode : Header stripping

Codec ID : V_MPEG4/ISO/AVC

Duration : 2h 34mn

Bit rate : 6 500 Kbps

Width : 1 280 pixels

Height : 674 pixels

Display aspect ratio : 1.899

Frame rate mode : Constant

Frame rate : 23.976 fps

Color space : YUV

Chroma subsampling : 4:2:0

Bit depth : 8 bits

Scan type : Progressive

Bits/(Pixel*Frame) : 0.314

Stream size : 6.90 GiB (89%)

Title : Medusa @ HDChina

Writing library : x264 core 148 r2665kMod a01e339

Encoding settings : cabac=1 / ref=9 / deblock=1:-3:-3 / analyse=0x3:0x133 / me=umh / subme=11 / psy=1 / fade_compensate=0.00 / psy_rd=1.05:0.00 / mixed_ref=1 / me_range=32 / chroma_me=1 / trellis=2 / 8x8dct=1 / cqm=0 / deadzone=21,11 / fast_pskip=0 / chroma_qp_offset=-2 / threads=21 / lookahead_threads=3 / sliced_threads=0 / nr=0 / decimate=0 / interlaced=0 / bluray_compat=0 / constrained_intra=0 / fgo=0 / bframes=8 / b_pyramid=2 / b_adapt=2 / b_bias=0 / direct=3 / weightb=1 / open_gop=0 / weightp=2 / keyint=240 / keyint_min=24 / scenecut=40 / intra_refresh=0 / rc=2pass / mbtree=0 / bitrate=6500 / ratetol=1.0 / qcomp=0.70 / qpmin=0 / qpmax=69 / qpstep=4 / cplxblur=20.0 / qblur=0.5 / ip_ratio=1.20 / pb_ratio=1.20 / aq=3:0.85

Default : Yes

Forced : No

 

Audio

ID : 2

Format : AC-3

Format/Info : Audio Coding 3

Mode extension : CM (complete main)

Format settings, Endianness : Big

Muxing mode : Header stripping

Codec ID : A_AC3

Duration : 2h 34mn

Bit rate mode : Constant

Bit rate : 640 Kbps

Channel(s) : 6 channels

Channel positions : Front: L C R, Side: L R, LFE

Sampling rate : 48.0 KHz

Compression mode : Lossy

Stream size : 708 MiB (9%)

Language : English

Default : Yes

Forced : No

 

 

 

 

https://www.youtube.com/watch?v=Y1DDmYMlHWw

 

 

 

 

WORLDBYTEZ

Kρυφό περιεχόμενο

    Απάντηση σε αυτό το θέμα για να δείτε το κρυφό περιεχόμενο.

Share this post


Link to post
Δημοσίευση σε άλλες σελίδες

Δημιουργήστε ένα λογαριασμό ή συνδεθείτε για να σχολιάσετε

Χρειάζεται να είστε χρήστης για να μπορέσετε να σχολιάσετε

Δημιουργία λογαριασμού

Εγγραφείτε για ένα νέο λογαριασμό στην κοινότητά μας. Είναι εύκολο!

Εγγραφή νέου λογαριασμού

Συνδεθείτε

Έχετε ήδη λογαριασμό? Συνδεθείτε εδώ.

Συνδεθείτε τώρα