Πήγαινε στο περιεχόμενο
admin

BAYWATCH (2017) UNRATED 1080p BluRay x264-GECKOS

Recommended Posts

46856110582000293866.jpeg

 

10902127201926640810.jpeg

 

 

Σκηνοθεσία: Seth Gordon

Σενάριο: Robert Ben Garant, Thomas Lennon, David Ronn, Jay Scherick, Damian Shannon, Mark Swift

Ηθοποιοί: Alexandra Daddario, Dwayne Johnson, Priyanka Chopra, Zac Efron

Είδος: Action, Comedy, Drama

Πρεμιέρα:1 June 2017 (Greece)

Yπότιτλοι: Eλληνικοί Ξεχωριστοί

Μετάφραση:ShitHigh&Watch

 

 

 

 

 

 

 

 

http://www.imdb.com/title/tt1469304/
Ο αφοσιωμένος ναυαγοσώστης Μιτς Μπιουκάνον έρχεται σε σύγκρουση με έναν αγενή νέο δόκιμο, τον Ματ Μπρόντι. Αλλά από τη σύγκρουση τους έρχεται μια ισχυρή συμμαχία, και μαζί θα πρέπει να ξεσκεπάσουν μια τοπική εγκληματική υπόθεση, η οποία απειλεί το μέλλον της παραλίας τους στην Καλιφόρνια

 

 

 

 

 

Format : Matroska

Format version : Version 4 / Version 2

File size : 7.94 GiB

Duration : 2h 1mn

Overall bit rate : 9 368 Kbps

Encoded date : UTC 2017-08-18 00:15:03

Writing application : mkvmerge v11.0.0 ('Alive') 64bit

Writing library : libebml v1.3.4 + libmatroska v1.4.5

DURATION : 00:35:19.909000000

NUMBER_OF_FRAMES : 8

NUMBER_OF_BYTES : 237

_STATISTICS_WRITING_APP : mkvmerge v11.0.0 ('Alive') 64bit

_STATISTICS_WRITING_DATE_UTC : 2017-08-18 00:15:03

_STATISTICS_TAGS : BPS DURATION NUMBER_OF_FRAMES NUMBER_OF_BYTES

 

Video

ID : 1

Format : AVC

Format/Info : Advanced Video Codec

Format profile : [email protected].1

Format settings, CABAC : Yes

Format settings, ReFrames : 5 frames

Codec ID : V_MPEG4/ISO/AVC

Duration : 2h 1mn

Bit rate : 8 729 Kbps

Width : 1 920 pixels

Height : 808 pixels

Display aspect ratio : 2.40:1

Frame rate mode : Constant

Frame rate : 23.976 fps

Color space : YUV

Chroma subsampling : 4:2:0

Bit depth : 8 bits

Scan type : Progressive

Bits/(Pixel*Frame) : 0.235

Stream size : 7.24 GiB (91%)

Writing library : x264 core 152 r2851 ba24899

Encoding settings : cabac=1 / ref=5 / deblock=1:0:0 / analyse=0x3:0x133 / me=umh / subme=7 / psy=1 / psy_rd=1.00:0.00 / mixed_ref=1 / me_range=16 / chroma_me=1 / trellis=1 / 8x8dct=1 / cqm=0 / deadzone=21,11 / fast_pskip=0 / chroma_qp_offset=-2 / threads=24 / lookahead_threads=4 / sliced_threads=0 / nr=0 / decimate=1 / interlaced=0 / bluray_compat=0 / constrained_intra=0 / bframes=3 / b_pyramid=2 / b_adapt=1 / b_bias=0 / direct=1 / weightb=1 / open_gop=0 / weightp=2 / keyint=250 / keyint_min=23 / scenecut=40 / intra_refresh=0 / rc_lookahead=40 / rc=2pass / mbtree=1 / bitrate=8729 / ratetol=1.0 / qcomp=0.60 / qpmin=0 / qpmax=69 / qpstep=4 / cplxblur=20.0 / qblur=0.5 / ip_ratio=1.40 / aq=1:1.00

Language : English

Default : Yes

Forced : No

DURATION : 02:01:22.526000000

NUMBER_OF_FRAMES : 174606

NUMBER_OF_BYTES : 7943519005

_STATISTICS_WRITING_APP : mkvmerge v11.0.0 ('Alive') 64bit

_STATISTICS_WRITING_DATE_UTC : 2017-08-18 00:15:03

_STATISTICS_TAGS : BPS DURATION NUMBER_OF_FRAMES NUMBER_OF_BYTES

 

Audio

ID : 2

Format : AC-3

Format/Info : Audio Coding 3

Mode extension : CM (complete main)

Format settings, Endianness : Big

Codec ID : A_AC3

Duration : 2h 1mn

Bit rate mode : Constant

Bit rate : 640 Kbps

Channel(s) : 6 channels

Channel positions : Front: L C R, Side: L R, LFE

Sampling rate : 48.0 KHz

Compression mode : Lossy

Stream size : 556 MiB (7%)

Language : English

Default : Yes

Forced : No

 

 

 

 

 

 

https://www.youtube.com/watch?v=LeDzEeLaAdk

 

 

 

 

WORLDBYTEZ

Kρυφό περιεχόμενο

    Απάντηση σε αυτό το θέμα για να δείτε το κρυφό περιεχόμενο.

Share this post


Link to post
Δημοσίευση σε άλλες σελίδες

Δημιουργήστε ένα λογαριασμό ή συνδεθείτε για να σχολιάσετε

Χρειάζεται να είστε χρήστης για να μπορέσετε να σχολιάσετε

Δημιουργία λογαριασμού

Εγγραφείτε για ένα νέο λογαριασμό στην κοινότητά μας. Είναι εύκολο!

Εγγραφή νέου λογαριασμού

Συνδεθείτε

Έχετε ήδη λογαριασμό? Συνδεθείτε εδώ.

Συνδεθείτε τώρα