Πήγαινε στο περιεχόμενο
Lusion

McLAREN (2016) 720p BluRay x264-GHOULS

Recommended Posts

McLAREN (2016)

Ξεχωριστοί Ελληνικοί Υπότιτλοι

 

24252558331469734862.jpeg

 

52744369084313651674.jpeg

 

 

Σκηνοθεσία: Roger Donaldson

Σενάριο: James Brown, Matthew Metcalfe, Matthew Metcalfe, Glenn Standring

Ηθοποιοί: Mario Andretti, Alastair Caldwell, Dwayne Cameron, Matt Coldrick

Είδος ταινίας: Documentary | Action

Πρεμιέρα: 25 May 2017 (ΘΚ)

Yπότιτλοι: Eλληνικοί Ξεχωριστοί

Μετάφραση:AwakenGuardian

 

 

56651344381393665136.png

 

http://www.imdb.com/title/tt5031332/
ΥΠΟΘΕΣΗ

Η ιστορία του Bruce McLaren, του Νεοζηλανδού πιλότου που ίδρυσε την ομάδα McLaren Motor Racing. Ένας άνδρας που έδειξε στον κόσμο ότι ένας άνθρωπος με ταπεινό ξεκίνημα θα μπορούσε να αντιμετωπίσει την ελίτ του αγωνιστικών ομάδων και να κερδίσει.

 

 

 

 

Media Info

 

 

General

Format : Matroska

Format version : Version 4 / Version 2

File size : 4.37 GiB

Duration : 1 h 34 min

Overall bit rate : 6 651 kb/s

Encoded date : UTC 2017-05-25 23:47:34

Writing application : mkvmerge v12.0.0 ('Trust / Lust') 64bit

Writing library : libebml v1.3.4 + libmatroska v1.4.5

 

Video

ID : 1

Format : AVC

Format/Info : Advanced Video Codec

Format profile : [email protected].1

Format settings, CABAC : Yes

Format settings, ReFrames : 5 frames

Codec ID : V_MPEG4/ISO/AVC

Duration : 1 h 34 min

Bit rate : 5 885 kb/s

Width : 1 280 pixels

Height : 536 pixels

Display aspect ratio : 2.40:1

Frame rate mode : Constant

Frame rate : 23.976 (24000/1001) FPS

Color space : YUV

Chroma subsampling : 4:2:0

Bit depth : 8 bits

Scan type : Progressive

Bits/(Pixel*Frame) : 0.358

Stream size : 3.78 GiB (86%)

Writing library : x264 core 150 r2829 d1fe6fd

Encoding settings : cabac=1 / ref=5 / deblock=1:-3:-3 / analyse=0x3:0x133 / me=umh / subme=8 / psy=1 / psy_rd=1.00:0.00 / mixed_ref=1 / me_range=16 / chroma_me=1 / trellis=1 / 8x8dct=1 / cqm=0 / deadzone=21,11 / fast_pskip=0 / chroma_qp_offset=-2 / threads=6 / lookahead_threads=1 / sliced_threads=0 / nr=0 / decimate=1 / interlaced=0 / bluray_compat=0 / constrained_intra=0 / bframes=3 / b_pyramid=2 / b_adapt=1 / b_bias=0 / direct=3 / weightb=1 / open_gop=0 / weightp=2 / keyint=250 / keyint_min=23 / scenecut=40 / intra_refresh=0 / rc_lookahead=50 / rc=2pass / mbtree=1 / bitrate=5885 / ratetol=1.0 / qcomp=0.60 / qpmin=0 / qpmax=69 / qpstep=4 / cplxblur=20.0 / qblur=0.5 / vbv_maxrate=62500 / vbv_bufsize=78125 / nal_hrd=none / filler=0 / ip_ratio=1.40 / aq=1:1.00

Default : Yes

Forced : No

 

Audio

ID : 2

Format : DTS

Format/Info : Digital Theater Systems

Mode : 16

Format settings, Endianness : Big

Codec ID : A_DTS

Duration : 1 h 34 min

Bit rate mode : Constant

Bit rate : 768 kb/s

Channel(s) : 6 channels

Channel positions : Front: L C R, Side: L R, LFE

Sampling rate : 48.0 kHz

Frame rate : 93.750 FPS (512 spf)

Bit depth : 24 bits

Compression mode : Lossy

Stream size : 517 MiB (12%)

Language : English

Default : Yes

Forced : No

 

 

 

 

https://www.youtube.com/watch?v=E6A9WfGQVN4

 

 

65503385509476962249.png

Kρυφό περιεχόμενο

    Απάντηση σε αυτό το θέμα για να δείτε το κρυφό περιεχόμενο.

Share this post


Link to post
Δημοσίευση σε άλλες σελίδες

Δημιουργήστε ένα λογαριασμό ή συνδεθείτε για να σχολιάσετε

Χρειάζεται να είστε χρήστης για να μπορέσετε να σχολιάσετε

Δημιουργία λογαριασμού

Εγγραφείτε για ένα νέο λογαριασμό στην κοινότητά μας. Είναι εύκολο!

Εγγραφή νέου λογαριασμού

Συνδεθείτε

Έχετε ήδη λογαριασμό? Συνδεθείτε εδώ.

Συνδεθείτε τώρα