Πήγαινε στο περιεχόμενο
Gamato
Αναζήτηση σε...
  • More options...
Βρείτε αποτελέσματα που ...
Βρείτε αποτελέσματα σε...
  • GAMATO

    «GAMATO The Greek Community»

    Το GAMATO είναι ένα υπέροχο λειτουργικά σχεδιασμένο Website με πλούσιο και ενεργό υλικό κατεβάσματος ανά κατηγορία. Χρειάζεται μία απλή εγγραφή με ένα email σας και να είστε λίγο εξοικειωμένοι με τη διαδικασία κατεβάσματος μέσω filehosting services WORLDBYTEZ. See more...

  • WORLDBYTEZ

    Worldbytez είναι ένα υπέροχο λειτουργικά σχεδιασμένος filehosting με πλούσιο και ενεργό υλικό, Χρειάζεται μία απλή εγγραφή με ένα email σας και να είστε λίγο εξοικειωμένοι με τη διαδικασία κατεβάσματος μέσω filehosting services WORLDBYTEZ. See more...

  • GAMATO

    «GAMATO The Greek Community»

    Το GAMATO είναι ένα υπέροχο λειτουργικά σχεδιασμένο Website με πλούσιο και ενεργό υλικό κατεβάσματος ανά κατηγορία. Χρειάζεται μία απλή εγγραφή με ένα email σας και να είστε λίγο εξοικειωμένοι με τη διαδικασία κατεβάσματος μέσω filehosting services WORLDBYTEZ. See more...

  • WORLDBYTEZ

    Worldbytez είναι ένα υπέροχο λειτουργικά σχεδιασμένος filehosting με πλούσιο και ενεργό υλικό, Χρειάζεται μία απλή εγγραφή με ένα email σας και να είστε λίγο εξοικειωμένοι με τη διαδικασία κατεβάσματος μέσω filehosting services WORLDBYTEZ. See more...

Shootbox

ΠΩΣ ΚΑΤΕΒΑΖΟΥΜΕ VIDEO VIDEO
ΓΙΝΕ ΑΜΕΣΑ PREMIUMΚΑΙ ΚΑΤΕΒΑΣΤΕ ΑΡΧΕΙΑ ΑΜΕΣΑ ΜΕ ΤΟΝ IDM
ΑΠΑΓΟΡΕΥΕΤΑΙ ΟΠΟΙΑΔΗΠΟΤΕ ΒΟΗΘΕΙΑ ΣΤΟ CHAT ΥΠΑΡΧΕΙ SECTION ΒΟΗΘΕΙΑΣ

Load More
Δεν έχετε άδεια για συνομιλία παρακαλούμε εγγραφείτε.

NEWS

Tα θεματα του φορουμ εχουν λινκ αποκλειστικα στο Worldbytez

Eκμεταλλευτειτε τις νεες χαμηλες τιμες για premium συνδρομες για να εχετε απεριοριστο downloading

Lusion

SUPER DARK TIMES (2017) LIMITED 1080p BluRay x264-USURY


Recommended Posts

81854990556466007124.png

 

81005280521902087389.jpeg

 

 

Σκηνοθέτης: Kevin Phillips

Σενάριο: Ben Collins, Luke Piotrowski

Ηθοποιοί: Owen Campbell, Charlie Tahan, Elizabeth Cappuccino

Είδος: Drama, Thriller

Πρεμιέρα: 29 September 2017 (USA)

Yπότιτλοι: Eλληνικοί Ξεχωριστοί

Μετάφραση:Dalton

 

 

 

 

Kρυφό περιεχόμενο

    Απάντηση σε αυτό το θέμα για να δείτε το κρυφό περιεχόμενο.
Στο Super Dark Times πρωταγωνιστούν οι Owen Campbell και Charlie Tahan ως κολλητοί που μεγαλώνουν μαζί σε ένα προάστιο της Νέας Υόρκης την δεκαετία του ’90, όπου η εφηβική ζωή περιστρέφεται γύρω από μπαλιές, τα πρώτα ερωτικά σκιρτήματα και την επιθυμία για δημοτικότητα. Όταν ένα τραυματικό περιστατικό οδηγεί σε ρήξη τους μέχρι πρότινος αχώριστους φίλους, η νεανική αθωότητα εξαφανίζεται απότομα. Κάθε νεαρός επεξεργάζεται την τραγωδία που συνέβη με τον δικό του τρόπο, έως ότου τα πράγματα γίνονται πιο περίπλοκα και αποκτούν μία ιδιαίτερη ροπή προς τη βία.

 

 

 

 

 

 

 

Format : Matroska

Format version : Version 4 / Version 2

File size : 7.63 GiB

Duration : 1 h 43 min

Overall bit rate : 10.6 Mb/s

Encoded date : UTC 2017-11-17 14:45:27

Writing application : mkvmerge v8.3.0 ('Over the Horizon') 64bit

Writing library : libebml v1.3.1 + libmatroska v1.4.2

 

Video

ID : 1

Format : AVC

Format/Info : Advanced Video Codec

Format profile : [email protected].1

Format settings : CABAC / 5 Ref Frames

Format settings, CABAC : Yes

Format settings, RefFrames : 5 frames

Codec ID : V_MPEG4/ISO/AVC

Duration : 1 h 42 min

Bit rate : 9 124 kb/s

Width : 1 920 pixels

Height : 800 pixels

Display aspect ratio : 2.40:1

Frame rate mode : Constant

Frame rate : 23.976 (24000/1001) FPS

Color space : YUV

Chroma subsampling : 4:2:0

Bit depth : 8 bits

Scan type : Progressive

Bits/(Pixel*Frame) : 0.248

Stream size : 6.55 GiB (86%)

Writing library : x264 core 152 r2851 ba24899

Encoding settings : cabac=1 / ref=5 / deblock=1:-3:-3 / analyse=0x3:0x133 / me=umh / subme=9 / psy=1 / psy_rd=1.00:0.00 / mixed_ref=1 / me_range=16 / chroma_me=1 / trellis=2 / 8x8dct=1 / cqm=0 / deadzone=21,11 / fast_pskip=0 / chroma_qp_offset=-2 / threads=24 / lookahead_threads=2 / sliced_threads=0 / nr=0 / decimate=1 / interlaced=0 / bluray_compat=0 / constrained_intra=0 / bframes=3 / b_pyramid=2 / b_adapt=1 / b_bias=0 / direct=3 / weightb=1 / open_gop=0 / weightp=2 / keyint=240 / keyint_min=24 / scenecut=40 / intra_refresh=0 / rc_lookahead=50 / rc=2pass / mbtree=1 / bitrate=9124 / ratetol=1.0 / qcomp=0.60 / qpmin=0 / qpmax=69 / qpstep=4 / cplxblur=20.0 / qblur=0.5 / ip_ratio=1.40 / aq=1:1.00

Language : English

Default : Yes

Forced : No

 

Audio

ID : 2

Format : DTS

Format/Info : Digital Theater Systems

Mode : 16

Format settings, Endianness : Big

Codec ID : A_DTS

Duration : 1 h 43 min

Bit rate mode : Constant

Bit rate : 1 509 kb/s

Channel(s) : 6 channels

Channel positions : Front: L C R, Side: L R, LFE

Sampling rate : 48.0 kHz

Frame rate : 93.750 FPS (512 SPF)

Bit depth : 24 bits

Compression mode : Lossy

Stream size : 1.09 GiB (14%)

Language : English

Default : Yes

Forced : No

 

 

 

 

 

https://www.youtube.com/watch?v=a-nnMkMnFbI

 

 

 

WORLDBYTEZ

Kρυφό περιεχόμενο

    Απάντηση σε αυτό το θέμα για να δείτε το κρυφό περιεχόμενο.

Share this post


Link to post
Δημοσίευση σε άλλες σελίδες

Δημιουργήστε ένα λογαριασμό ή συνδεθείτε για να σχολιάσετε

Χρειάζεται να είστε χρήστης για να μπορέσετε να σχολιάσετε

Δημιουργία λογαριασμού

Εγγραφείτε για ένα νέο λογαριασμό στην κοινότητά μας. Είναι εύκολο!

Εγγραφή νέου λογαριασμού

Συνδεθείτε

Έχετε ήδη λογαριασμό? Συνδεθείτε εδώ.

Συνδεθείτε τώρα
    • 1 Posts
    • 6 Views
    • 1 Posts
    • 18 Views
    • 1 Posts
    • 18 Views
    • 1 Posts
    • 30 Views
    • 1 Posts
    • 32 Views

×