Πήγαινε στο περιεχόμενο
Lak1s

CROOKED HOUSE (2017) 1080p BluRay x264-ROVERS

Recommended Posts

CROOKED HOUSE (2017)
Ξεχωριστοί  Ελληνικοί Υπότιτλοι


98721284191677107469.png

[/img]


Είδος Ταινίας: Crime, Drama, Mystery
Σκηνοθέτης: Gilles Paquet-Brenner
Σενάριο: Julian Fellowes (screenplay), Agatha Christie (novel)
Ηθοποιοί: Gillian Anderson, Christina Hendricks, Glenn Close
Υπότιτλοι: Eλληνικοί, Ξεχωριστοί
Πρεμιέρα: 21 November 2017 (UK)
Μετάφραση: filcollins, vivianpg, Artemis



78167258268745496963.png

http://www.imdb.com/title/tt0120784/


ΥΠΟΘΕΣΗ
Όταν ο Αριστείδης Λεωνίδας, ένας πλούσιος και αδίστακτος κροίσος, δηλητηριάζεται στο ίδιο του το κρεββάτι, ο ντετέκτιβ Τσαρλς Χέιγουαρντ προσκαλείται για να διαλευκάνει το έγκλημα. Η αποκάλυψη ότι η μία από κύριους ύποπτους είναι η εγγονή του θύματος, ο Σοφία, θα τον σοκάρει, μαθαίνοντας μια και η Σοφία ήταν πρώην ερωμένη του. Ο ντετέκτιβ πρέπει να διατηρήσει το μυαλό του καθαρό, ώστε να καθοδηγήσει την πανέμορφη Σοφία και την υπόλοιπη οικογένεια σε μια υπόθεση όπου κανένας δεν είναι υπεράνω υποψίας.



Media Info


General
Format                                   : Matroska
Format version                           : Version 4 / Version 2
File size                                : 8.75 GiB
Duration                                 : 1 h 55 min
Overall bit rate                         : 10.9 Mb/s
Encoded date                             : UTC 2018-01-26 09:33:43
Writing application                      : mkvmerge v20.0.0 ('I Am The Sun') 64-bit
Writing library                          : libebml v1.3.5 + libmatroska v1.4.8

Video
ID                                       : 1
Format                                   : AVC
Format/Info                              : Advanced Video Codec
Format profile                           : [email protected]
Format settings                          : CABAC / 5 Ref Frames
Format settings, CABAC                   : Yes
Format settings, RefFrames               : 5 frames
Codec ID                                 : V_MPEG4/ISO/AVC
Duration                                 : 1 h 55 min
Bit rate                                 : 9 362 kb/s
Width                                    : 1 920 pixels
Height                                   : 808 pixels
Display aspect ratio                     : 2.40:1
Frame rate mode                          : Constant
Frame rate                               : 23.976 (24000/1001) FPS
Color space                              : YUV
Chroma subsampling                       : 4:2:0
Bit depth                                : 8 bits
Scan type                                : Progressive
Bits/(Pixel*Frame)                       : 0.252
Stream size                              : 7.53 GiB (86%)
Writing library                          : x264 core 155 r2901 7d0ff22
Encoding settings                        : cabac=1 / ref=5 / deblock=1:0:0 / analyse=0x3:0x133 / me=umh / subme=7 / psy=1 / psy_rd=1.00:0.00 / mixed_ref=1 / me_range=16 / chroma_me=1 / trellis=1 / 8x8dct=1 / cqm=0 / deadzone=21,11 / fast_pskip=0 / chroma_qp_offset=-2 / threads=24 / lookahead_threads=4 / sliced_threads=0 / nr=0 / decimate=1 / interlaced=0 / bluray_compat=0 / constrained_intra=0 / bframes=3 / b_pyramid=2 / b_adapt=1 / b_bias=0 / direct=1 / weightb=1 / open_gop=0 / weightp=2 / keyint=250 / keyint_min=23 / scenecut=40 / intra_refresh=0 / rc_lookahead=40 / rc=2pass / mbtree=1 / bitrate=9362 / ratetol=1.0 / qcomp=0.60 / qpmin=0 / qpmax=69 / qpstep=4 / cplxblur=20.0 / qblur=0.5 / ip_ratio=1.40 / aq=1:1.00
Language                                 : English
Default                                  : Yes
Forced                                   : No

Audio
ID                                       : 2
Format                                   : DTS
Format/Info                              : Digital Theater Systems
Codec ID                                 : A_DTS
Duration                                 : 1 h 55 min
Bit rate mode                            : Constant
Bit rate                                 : 1 509 kb/s
Channel(s)                               : 6 channels
Channel positions                        : Front: L C R, Side: L R, LFE
Sampling rate                            : 48.0 kHz
Frame rate                               : 93.750 FPS (512 SPF)
Bit depth                                : 24 bits
Compression mode                         : Lossy
Stream size                              : 1.21 GiB (14%)
Language                                 : English
Default                                  : Yes
Forced                                   : No




https://www.youtube.com/watch?v=JwTYh5BHH5A


77359781269133097508.png

Kρυφό περιεχόμενο

    Απάντηση σε αυτό το θέμα για να δείτε το κρυφό περιεχόμενο.



23032114320362151688.png

Kρυφό περιεχόμενο

    Απάντηση σε αυτό το θέμα για να δείτε το κρυφό περιεχόμενο.

Share this post


Link to post
Δημοσίευση σε άλλες σελίδες

Δημιουργήστε ένα λογαριασμό ή συνδεθείτε για να σχολιάσετε

Χρειάζεται να είστε χρήστης για να μπορέσετε να σχολιάσετε

Δημιουργία λογαριασμού

Εγγραφείτε για ένα νέο λογαριασμό στην κοινότητά μας. Είναι εύκολο!

Εγγραφή νέου λογαριασμού

Συνδεθείτε

Έχετε ήδη λογαριασμό? Συνδεθείτε εδώ.

Συνδεθείτε τώρα