Πήγαινε στο περιεχόμενο
Lusion

BEACH RATS (2017) 1080p BluRay DTS x264-CHD

Recommended Posts

BEACH RATS (2017)

Ξεχωριστοί Ελληνικοί Υπότιτλοι

 

37968976614400661378.jpg

 

22965607989706221230.jpg

 

 

Είδος: Drama

Σκηνοθεσία: Eliza Hittman

Σενάριο: Eliza Hittman

Ηθοποιοί: Harris Dickinson, Madeline Weinstein, Kate Hodge

Πρεμιέρα : 23 January 2017 (USA)

Yπότιτλοι: Ελληνικοί Ξεχωριστοί

Μετάφραση: Άγνωστος

 

 

 

78167258268745496963.png

http://www.imdb.com/title/tt6303866/
ΥΠΟΘΕΣΗ

Ο Φράνκι, ένας άσκοπος νέος από το Μπρούκλιν, διάγει ένα άθλιο Καλοκαίρι. Ο πατέρας του πεθαίνει και η μητέρα του απλά περιμένει από αυτόν να βρει μια φιλενάδα. Για να δραπετεύσει από τη μιζέρια του σπιτιού του, ο νεαρός προκαλεί φασαρίες με τους φίλους του και φλερτάρει μέσω ίντερνετ με μεγαλύτερους αρσενικούς. Και ενώ ξεκινάει να φλερτάρει και ανοιχτά με ομόφυλους σε παρακείμενη παραλία, ξεκινάει την ίδια στιγμή σχέση με μια νεαρή κοπέλα. Καθώς ο Φράνκι παλεύει να διευθετήσει τις αντίρροπες ορμές του, οι αποφάσεις του τον αφήνουν έκθετο σε ανεπανόρθωτες συνέπειες.

 

 

 

 

 

Media Info

 

 

General

Format : Matroska

Format version : Version 4 / Version 2

File size : 12.4 GiB

Duration : 1 h 38 min

Overall bit rate : 18.1 Mb/s

Encoded date : UTC 2017-11-10 14:04:11

Writing application : mkvmerge v10.0.0 ('To Drown In You') 64bit

Writing library : libebml v1.3.4 + libmatroska v1.4.5

 

Video

ID : 1

Format : AVC

Format/Info : Advanced Video Codec

Format profile : [email protected]

Format settings : CABAC / 4 Ref Frames

Format settings, CABAC : Yes

Format settings, RefFrames : 4 frames

Codec ID : V_MPEG4/ISO/AVC

Duration : 1 h 38 min

Bit rate : 16.6 Mb/s

Width : 1 920 pixels

Height : 1 080 pixels

Display aspect ratio : 16:9

Frame rate mode : Constant

Frame rate : 23.976 (24000/1001) FPS

Color space : YUV

Chroma subsampling : 4:2:0

Bit depth : 8 bits

Scan type : Progressive

Bits/(Pixel*Frame) : 0.334

Stream size : 11.4 GiB (92%)

Writing library : x264 core 149 r2771+45 509cceb 7mod [[email protected] X86_64]

Encoding settings : cabac=1 / ref=4 / deblock=1:-3:-3 / analyse=0x3:0x113 / me=umh / subme=10 / psy=1 / fade_compensate=0.00 / psy_rd=0.90:0.10 / mixed_ref=1 / me_range=48 / chroma_me=1 / trellis=2 / 8x8dct=1 / cqm=0 / deadzone=21,11 / fast_pskip=0 / chroma_qp_offset=-2 / threads=12 / lookahead_threads=2 / sliced_threads=0 / nr=0 / decimate=1 / interlaced=0 / bluray_compat=0 / constrained_intra=0 / fgo=0 / bframes=8 / b_pyramid=2 / b_adapt=2 / b_bias=0 / direct=3 / weightb=1 / open_gop=0 / weightp=2 / keyint=250 / keyint_min=23 / scenecut=40 / intra_refresh=0 / rc_lookahead=40 / rc=crf / mbtree=0 / crf=22.0000 / qcomp=0.70 / qpmin=0:0:0 / qpmax=69:69:69 / qpstep=4 / vbv_maxrate=35000 / vbv_bufsize=35000 / crf_max=0.0 / nal_hrd=none / filler=0 / ip_ratio=1.40 / pb_ratio=1.30 / aq=3:1.00 / aq-sensitivity=10.00 / aq-factor=1.00:1.00:1.00 / aq2=0 / aq3=2:[0.50:0.50]:[0.50:0.50]:[0.50:0.50]:[0.50:0.50] / aq3-sensitivity=10.00 / aq3-factor=[1.00:1.00]:[1.00:1.00]:[1.00:1.00] / aq3-boundary=192:64:24

Language : English

Default : Yes

Forced : No

Color range : Limited

Matrix coefficients : BT.709

 

Audio

ID : 2

Format : DTS

Format/Info : Digital Theater Systems

Mode : 16

Format settings, Endianness : Big

Codec ID : A_DTS

Duration : 1 h 38 min

Bit rate mode : Constant

Bit rate : 1 509 kb/s

Channel(s) : 6 channels

Channel positions : Front: L C R, Side: L R, LFE

Sampling rate : 48.0 kHz

Frame rate : 93.750 FPS (512 SPF)

Bit depth : 24 bits

Compression mode : Lossy

Stream size : 1.04 GiB (8%)

Language : English

Default : Yes

Forced : No

 

 

 

 

https://www.youtube.com/watch?v=kqFOVJBssLI

 

 

77359781269133097508.png

Kρυφό περιεχόμενο

    Απάντηση σε αυτό το θέμα για να δείτε το κρυφό περιεχόμενο.

Share this post


Link to post
Δημοσίευση σε άλλες σελίδες

Δημιουργήστε ένα λογαριασμό ή συνδεθείτε για να σχολιάσετε

Χρειάζεται να είστε χρήστης για να μπορέσετε να σχολιάσετε

Δημιουργία λογαριασμού

Εγγραφείτε για ένα νέο λογαριασμό στην κοινότητά μας. Είναι εύκολο!

Εγγραφή νέου λογαριασμού

Συνδεθείτε

Έχετε ήδη λογαριασμό? Συνδεθείτε εδώ.

Συνδεθείτε τώρα
    • 2 Posts
    • 40 Views
    • 1 Posts
    • 32 Views
    • 1 Posts
    • 64 Views
    • 1 Posts
    • 96 Views
    • 1 Posts
    • 98 Views