Πήγαινε στο περιεχόμενο
admin

ZOOLANDER 2 (2016) 1080p BluRay x264-DRONES

Recommended Posts

48628496323105002036.jpg

 

59944989788086091261.jpeg

 

 

Σκηνοθεσία:Ben Stiller

Σενάριο: Justin Theroux, Ben Stiller

Ηθοποιοί: Ben Stiller, Owen Wilson, Penélope Cruz

Είδος: Comedy

Πρεμιέρα:10 March 2016 (Greece)

Yπότιτλοι: Eλληνικοί Εξωτερικοί

Μετάφραση :P_beimann

 

 

 

 

 

http://www.imdb.com/title/tt1608290/
Έχουν περάσει δέκα χρόνια από τις εποχές της δόξας τους, και πλέον τον Ντέρεκ και τον Χάνσελ δεν τους μνημονεύει κανείς. Η λύση τους είναι να επαναπροσδιορίσουν το σύνολο του εαυτού τους, Κι ενώ έχουν κάνει μαζί τη μεγάλη επιστροφή, μια αντίπαλη εταιρία μοντέλων βάλλεται να τους εξαφανίσει από την πιάτσα. Ο δρόμος τώρα οδηγεί στην Ευρώπη.

 

 

 

Format : Matroska

Format version : Version 4 / Version 2

File size : 7.65 GiB

Duration : 1h 41mn

Overall bit rate : 10.8 Mbps

Encoded date : UTC 2016-05-10 16:55:09

Writing application : mkvmerge v8.3.0 ('Over the Horizon') 64bit

Writing library : libebml v1.3.1 + libmatroska v1.4.2

DURATION : 01:41:47.563000000

NUMBER_OF_FRAMES : 572584

NUMBER_OF_BYTES : 1152039008

_STATISTICS_WRITING_APP : mkvmerge v8.3.0 ('Over the Horizon') 64bit

_STATISTICS_WRITING_DATE_UTC : 2016-05-10 16:55:09

_STATISTICS_TAGS : BPS DURATION NUMBER_OF_FRAMES NUMBER_OF_BYTES

 

Video

ID : 1

Format : AVC

Format/Info : Advanced Video Codec

Format profile : [email protected].1

Format settings, CABAC : Yes

Format settings, ReFrames : 5 frames

Codec ID : V_MPEG4/ISO/AVC

Duration : 1h 41mn

Bit rate : 9 252 Kbps

Width : 1 920 pixels

Height : 808 pixels

Display aspect ratio : 2.40:1

Frame rate mode : Constant

Frame rate : 23.976 fps

Color space : YUV

Chroma subsampling : 4:2:0

Bit depth : 8 bits

Scan type : Progressive

Bits/(Pixel*Frame) : 0.249

Stream size : 6.43 GiB (84%)

Writing library : x264 core 148 r2692 64f4e24

Encoding settings : cabac=1 / ref=5 / deblock=1:0:0 / analyse=0x3:0x133 / me=umh / subme=7 / psy=1 / psy_rd=1.00:0.00 / mixed_ref=1 / me_range=16 / chroma_me=1 / trellis=1 / 8x8dct=1 / cqm=0 / deadzone=21,11 / fast_pskip=0 / chroma_qp_offset=-2 / threads=18 / lookahead_threads=3 / sliced_threads=0 / nr=0 / decimate=1 / interlaced=0 / bluray_compat=0 / constrained_intra=0 / bframes=3 / b_pyramid=2 / b_adapt=1 / b_bias=0 / direct=1 / weightb=1 / open_gop=0 / weightp=2 / keyint=250 / keyint_min=23 / scenecut=40 / intra_refresh=0 / rc_lookahead=40 / rc=2pass / mbtree=1 / bitrate=9252 / ratetol=1.0 / qcomp=0.60 / qpmin=0 / qpmax=69 / qpstep=4 / cplxblur=20.0 / qblur=0.5 / ip_ratio=1.40 / aq=1:1.00

Language : English

Default : Yes

Forced : No

DURATION : 01:41:47.528000000

NUMBER_OF_FRAMES : 146434

NUMBER_OF_BYTES : 7060674053

_STATISTICS_WRITING_APP : mkvmerge v8.3.0 ('Over the Horizon') 64bit

_STATISTICS_WRITING_DATE_UTC : 2016-05-10 16:55:09

_STATISTICS_TAGS : BPS DURATION NUMBER_OF_FRAMES NUMBER_OF_BYTES

 

Audio

ID : 2

Format : DTS

Format/Info : Digital Theater Systems

Mode : 16

Format settings, Endianness : Big

Codec ID : A_DTS

Duration : 1h 41mn

Bit rate mode : Constant

Bit rate : 1 509 Kbps

Channel(s) : 6 channels

Channel positions : Front: L C R, Side: L R, LFE

Sampling rate : 48.0 KHz

Bit depth : 24 bits

Compression mode : Lossy

Stream size : 1.07 GiB (14%)

Language : English

Default : Yes

Forced : No

 

 

 

 

https://www.youtube.com/watch?v=4CL4LNWHegk

 

 

 

WORLDBYTEZ

Kρυφό περιεχόμενο

    Απάντηση σε αυτό το θέμα για να δείτε το κρυφό περιεχόμενο.

Share this post


Link to post
Δημοσίευση σε άλλες σελίδες

Δημιουργήστε ένα λογαριασμό ή συνδεθείτε για να σχολιάσετε

Χρειάζεται να είστε χρήστης για να μπορέσετε να σχολιάσετε

Δημιουργία λογαριασμού

Εγγραφείτε για ένα νέο λογαριασμό στην κοινότητά μας. Είναι εύκολο!

Εγγραφή νέου λογαριασμού

Συνδεθείτε

Έχετε ήδη λογαριασμό? Συνδεθείτε εδώ.

Συνδεθείτε τώρα