Πήγαινε στο περιεχόμενο
admin

ZONA HOSTIL / RESCUE UNDER FIRE (2017) 1080p BluRay DD5.1 x264-EMLHDTEAM

Recommended Posts

65836862262774747929.jpg

 

 

 

22979934152134498825.jpeg

 

 

Σκηνοθεσία: Adolfo Martínez Pérez

Σενάριο: Luis Arranz, Andrés M. Koppel

Ηθοποιοί: Ariadna Gil, Raúl Mérida, Roberto Álamo

Είδος: Action, Drama, Thriller

Πρεμιέρα: 10 March 2017 (Spain)

Yπότιτλοι: Eλληνικοί Ξεχωριστοί

Μετάφραση:dragonfly, ginar43

 

 

 

 

 

 

 

 

http://www.imdb.com/title/tt5456104/
Το πλήρωμα ενός ιατρικού ελικοπτέρου υφίσταται βλάβη όταν βοηθά μια κοινή δύναμη των Η.Π.Α. και των Ηνωμένων Εθνών στο ισπανικό τμήμα διοίκησης στο Αφγανιστάν. Ο ισπανικός στρατός έχει μόνο μία νύχτα για να διοργανώσει τη διάσωση του πληρώματος και των τραυματιών, αλλά αυτό που φαίνεται επιχείρηση ρουτίνας μετατρέπεται σε κόλαση μόλις λαμβάνουν εντολή και για τη διάσωση του ελικοπτέρου. Τα πράγματα χειροτερεύουν όταν κατά τη διάρκεια της νύχτας μια μεγάλη ομάδα Ταλιμπάν αρχίζει να τους περικυκλώνει.

 

 

 

 

 

Format : Matroska

Format version : Version 4 / Version 2

File size : 11.4 GiB

Duration : 1h 34mn

Overall bit rate : 17.2 Mbps

Encoded date : UTC 2017-07-10 14:22:57

Writing application : mkvmerge v6.7.0 ('Back to the Ground') 32bit built on Jan 8 2014 15:03:17

Writing library : libebml v1.3.0 + libmatroska v1.4.1

 

Video

ID : 1

Format : AVC

Format/Info : Advanced Video Codec

Format profile : [email protected]

Format settings, CABAC : Yes

Format settings, ReFrames : 5 frames

Codec ID : V_MPEG4/ISO/AVC

Duration : 1h 34mn

Bit rate : 16.3 Mbps

Width : 1 920 pixels

Height : 804 pixels

Display aspect ratio : 2.40:1

Frame rate mode : Constant

Frame rate : 24.000 fps

Color space : YUV

Chroma subsampling : 4:2:0

Bit depth : 8 bits

Scan type : Progressive

Bits/(Pixel*Frame) : 0.439

Stream size : 10.7 GiB (94%)

Writing library : x264 core 148 r2762+56 6284cf3 t_mod_Custom [[email protected] X86]

Encoding settings : cabac=1 / ref=5 / deblock=1:-3:-3 / analyse=0x3:0x133 / me=umh / subme=10 / psy=1 / fade_compensate=0.00 / psy_rd=1.00:0.00 / mixed_ref=1 / me_range=32 / chroma_me=1 / trellis=2 / 8x8dct=1 / cqm=0 / deadzone=21,11 / fast_pskip=0 / chroma_qp_offset=-2 / threads=18 / lookahead_threads=3 / sliced_threads=0 / nr=0 / decimate=0 / interlaced=0 / bluray_compat=0 / constrained_intra=0 / fgo=0 / bframes=7 / b_pyramid=2 / b_adapt=2 / b_bias=0 / direct=3 / weightb=1 / open_gop=0 / weightp=2 / keyint=250 / keyint_min=24 / scenecut=40 / intra_refresh=0 / rc_lookahead=60 / rc=crf / mbtree=0 / crf=16.0000 / qcomp=0.65 / qpmin=0:0:0 / qpmax=69:69:69 / qpstep=4 / vbv_maxrate=62500 / vbv_bufsize=78125 / crf_max=0.0 / nal_hrd=none / filler=0 / ip_ratio=1.20 / pb_ratio=1.10 / aq=3:1.00 / aq-sensitivity=10.00 / aq-factor=1.00:1.00:1.00 / aq2=0 / aq3=0

Language : English

Default : Yes

Forced : No

Color range : Limited

Matrix coefficients : BT.709

 

Audio

ID : 2

Format : AC-3

Format/Info : Audio Coding 3

Mode extension : CM (complete main)

Format settings, Endianness : Big

Codec ID : A_AC3

Duration : 1h 34mn

Bit rate mode : Constant

Bit rate : 640 Kbps

Channel(s) : 6 channels

Channel positions : Front: L C R, Side: L R, LFE

Sampling rate : 48.0 KHz

Compression mode : Lossy

Stream size : 432 MiB (4%)

Language : Spanish

Default : No

Forced : No

 

 

 

 

 

 

https://www.youtube.com/watch?v=E8Ihsxxy268

 

 

 

 

WORLDBYTEZ

Kρυφό περιεχόμενο

    Απάντηση σε αυτό το θέμα για να δείτε το κρυφό περιεχόμενο.

Share this post


Link to post
Δημοσίευση σε άλλες σελίδες

Δημιουργήστε ένα λογαριασμό ή συνδεθείτε για να σχολιάσετε

Χρειάζεται να είστε χρήστης για να μπορέσετε να σχολιάσετε

Δημιουργία λογαριασμού

Εγγραφείτε για ένα νέο λογαριασμό στην κοινότητά μας. Είναι εύκολο!

Εγγραφή νέου λογαριασμού

Συνδεθείτε

Έχετε ήδη λογαριασμό? Συνδεθείτε εδώ.

Συνδεθείτε τώρα